<svg xmlns="http://www.w3.org/2000/svg"><defs><font id="FontAwesome5Free-Solid" horiz-adv-x="512"><font-face font-family="Font Awesome 5 Free Solid" font-weight="900" units-per-em="512" panose-1="2 0 5 3 0 0 0 0 0 0" ascent="448" descent="-64" bbox="-0.983398 -64.9834 640.104 448.427" underline-thickness="25" underline-position="-50" unicode-range="U+0020-F8D9"/><glyph glyph-name="glass-martini" unicode="" d="M502.05 390.4L288 176.36V-16h56c22.09 0 40-17.91 40-40 0-4.42-3.58-8-8-8H136c-4.42 0-8 3.58-8 8 0 22.09 17.91 40 40 40h56v192.36L9.95 390.4C-11.3 411.66 3.75 448 33.8 448h444.4c30.05 0 45.1-36.34 23.85-57.6z"/><glyph glyph-name="music" unicode="" d="M470.38 446.49c2.593.816 6.902 1.48 9.62 1.48 17.648 0 31.984-14.323 32-31.97V64c0-35.35-43-64-96-64s-96 28.66-96 64 43 64 96 64c8.96-.05 23.295-1.81 32-3.93v184.61l-256-75V0c0-35.34-43-64-96-64S0-35.34 0 0s43 64 96 64c8.958-.052 23.294-1.808 32-3.92v261.41c.008 12.957 10.048 26.625 22.41 30.509z"/><glyph glyph-name="search" unicode="" d="M505 5.3c9.3-9.4 9.3-24.6-.1-34L476.6-57c-9.3-9.4-24.5-9.4-33.9 0L343 42.7c-4.5 4.5-7 10.6-7 17V76c-35.3-27.6-79.7-44-128-44C93.1 32 0 125.1 0 240s93.1 208 208 208 208-93.1 208-208c0-48.3-16.4-92.7-44-128h16.3c6.4 0 12.5-2.5 17-7zM208 112c70.8 0 128 57.3 128 128 0 70.8-57.3 128-128 128-70.8 0-128-57.3-128-128 0-70.8 57.3-128 128-128z"/><glyph glyph-name="heart" unicode="" d="M462.3 385.4c62.8-53.6 66.1-149.801 9.8-207.9L278.6-22.3c-12.5-12.9-32.8-12.9-45.3 0L39.8 177.5c-56.2 58.1-52.9 154.3 9.9 207.9 54.8 46.7 136.4 38.3 186.6-13.6l19.7-20.3 19.7 20.3c50.3 51.9 131.8 60.3 186.6 13.6z"/><glyph glyph-name="star" unicode="" horiz-adv-x="576" d="M259.3 430.2c11.8 23.9 45.7 23.6 57.4 0L382 297.8l146.1-21.3c26.2-3.8 36.7-36.1 17.7-54.6l-105.7-103 25-145.5c4.5-26.3-23.199-45.9-46.399-33.7l-130.7 68.7-130.7-68.7c-23.2-12.3-50.9 7.4-46.4 33.7l25 145.5-105.7 103c-19 18.5-8.5 50.8 17.7 54.6l146.1 21.3z"/><glyph glyph-name="user" unicode="" horiz-adv-x="448" d="M224 192c-70.7 0-128 57.3-128 128s57.3 128 128 128 128-57.3 128-128-57.3-128-128-128zm89.6-32C387.8 160 448 99.8 448 25.6V-16c0-26.5-21.5-48-48-48H48C21.5-64 0-42.5 0-16v41.6C0 99.8 60.2 160 134.4 160h16.7c22.3-10.2 46.9-16 72.9-16s50.7 5.8 72.9 16h16.7z"/><glyph glyph-name="film" unicode="" d="M488 384c13.3 0 24-10.7 24-24V24c0-13.3-10.7-24-24-24h-8v20c0 6.6-5.4 12-12 12h-40c-6.6 0-12-5.4-12-12V0H96v20c0 6.6-5.4 12-12 12H44c-6.6 0-12-5.4-12-12V0h-8C10.7 0 0 10.7 0 24v336c0 13.3 10.7 24 24 24h8v-20c0-6.6 5.4-12 12-12h40c6.6 0 12 5.4 12 12v20h320v-20c0-6.6 5.4-12 12-12h40c6.6 0 12 5.4 12 12v20h8zM96 76v40c0 6.6-5.4 12-12 12H44c-6.6 0-12-5.4-12-12V76c0-6.6 5.4-12 12-12h40c6.6 0 12 5.4 12 12zm0 96v40c0 6.6-5.4 12-12 12H44c-6.6 0-12-5.4-12-12v-40c0-6.6 5.4-12 12-12h40c6.6 0 12 5.4 12 12zm0 96v40c0 6.6-5.4 12-12 12H44c-6.6 0-12-5.4-12-12v-40c0-6.6 5.4-12 12-12h40c6.6 0 12 5.4 12 12zM368 60v96c0 6.6-5.4 12-12 12H156c-6.6 0-12-5.4-12-12V60c0-6.6 5.4-12 12-12h200c6.6 0 12 5.4 12 12zm0 168v96c0 6.6-5.4 12-12 12H156c-6.6 0-12-5.4-12-12v-96c0-6.6 5.4-12 12-12h200c6.6 0 12 5.4 12 12zM480 76v40c0 6.6-5.4 12-12 12h-40c-6.6 0-12-5.4-12-12V76c0-6.6 5.4-12 12-12h40c6.6 0 12 5.4 12 12zm0 96v40c0 6.6-5.4 12-12 12h-40c-6.6 0-12-5.4-12-12v-40c0-6.6 5.4-12 12-12h40c6.6 0 12 5.4 12 12zm0 96v40c0 6.6-5.4 12-12 12h-40c-6.6 0-12-5.4-12-12v-40c0-6.6 5.4-12 12-12h40c6.6 0 12 5.4 12 12z"/><glyph glyph-name="th-large" unicode="" d="M296 416h192c13.255 0 24-10.745 24-24V232c0-13.255-10.745-24-24-24H296c-13.255 0-24 10.745-24 24v160c0 13.255 10.745 24 24 24zm-80 0c13.255 0 24-10.745 24-24V232c0-13.255-10.745-24-24-24H24c-13.255 0-24 10.745-24 24v160c0 13.255 10.745 24 24 24h192zM0 152c0 13.255 10.745 24 24 24h192c13.255 0 24-10.745 24-24V-8c0-13.255-10.745-24-24-24H24C10.745-32 0-21.255 0-8v160zM296-32c-13.255 0-24 10.745-24 24v160c0 13.255 10.745 24 24 24h192c13.255 0 24-10.745 24-24V-8c0-13.255-10.745-24-24-24H296z"/><glyph glyph-name="th" unicode="" d="M149.333 392v-80c0-13.255-10.745-24-24-24H24c-13.255 0-24 10.745-24 24v80c0 13.255 10.745 24 24 24h101.333c13.255 0 24-10.745 24-24zm181.334-240c0-13.255-10.745-24-24.001-24H205.333c-13.255 0-24 10.745-24 24v80c0 13.255 10.745 24 24 24h101.334c13.255 0 24-10.745 24-24v-80zm32 240c0 13.255 10.745 24 24 24H488c13.255 0 24-10.745 24-24v-80c0-13.255-10.745-24-24-24H386.667c-13.255 0-24 10.745-24 24v80zm-32-80c0-13.255-10.745-24-24.001-24H205.333c-13.255 0-24 10.745-24 24v80c0 13.255 10.745 24 24 24h101.334c13.255 0 24-10.745 24-24v-80zm-205.334-56c13.255 0 24-10.745 24-24v-80c0-13.255-10.745-24-24-24H24c-13.255 0-24 10.745-24 24v80c0 13.255 10.745 24 24 24h101.333zM0 72c0 13.255 10.745 24 24 24h101.333c13.255 0 24-10.745 24-24V-8c0-13.255-10.745-24-24-24H24C10.745-32 0-21.255 0-8v80zm386.667 56c-13.255 0-24 10.745-24 24v80c0 13.255 10.745 24 24 24H488c13.255 0 24-10.745 24-24v-80c0-13.255-10.745-24-24-24H386.667zm0-160c-13.255 0-24 10.745-24 24v80c0 13.255 10.745 24 24 24H488c13.255 0 24-10.745 24-24V-8c0-13.255-10.745-24-24-24H386.667zM181.333 72c0 13.255 10.745 24 24 24h101.333c13.255 0 24-10.745 24-24V-8c0-13.255-10.745-24-24-24H205.333c-13.255 0-24 10.745-24 24v80z"/><glyph glyph-name="th-list" unicode="" d="M149.333 232v-80c0-13.255-10.745-24-24-24H24c-13.255 0-24 10.745-24 24v80c0 13.255 10.745 24 24 24h101.333c13.255 0 24-10.745 24-24zM0 72c0 13.255 10.745 24 24 24h101.333c13.255 0 24-10.745 24-24V-8c0-13.255-10.745-24-24-24H24C10.745-32 0-21.255 0-8v80zm125.333 344c13.255 0 24-10.745 24-24v-80c0-13.255-10.745-24-24-24H24c-13.255 0-24 10.745-24 24v80c0 13.255 10.745 24 24 24h101.333zm80-448c-13.255 0-24 10.745-24 24v80c0 13.255 10.745 24 24 24H488c13.255 0 24-10.745 24-24V-8c0-13.255-10.745-24-24-24H205.333zm-24 424c0 13.255 10.745 24 24 24H488c13.255 0 24-10.745 24-24v-80c0-13.255-10.745-24-24-24H205.333c-13.255 0-24 10.745-24 24v80zm24-264c-13.255 0-24 10.745-24 24v80c0 13.255 10.745 24 24 24H488c13.255 0 24-10.745 24-24v-80c0-13.255-10.745-24-24-24H205.333z"/><glyph glyph-name="check" unicode="" d="M173.898 8.596l-166.4 166.4c-9.997 9.997-9.997 26.206 0 36.204l36.203 36.204c9.997 9.998 26.207 9.998 36.204 0L192 135.309l240.095 240.095c9.997 9.997 26.207 9.997 36.204 0l36.203-36.204c9.997-9.997 9.997-26.206 0-36.204L210.102 8.595c-9.998-9.997-26.207-9.997-36.203 0z"/><glyph glyph-name="times" unicode="" horiz-adv-x="352" d="M242.72 192L342.79 91.93c12.28-12.29 12.28-32.2 0-44.48l-22.24-22.24c-12.28-12.28-32.2-12.28-44.48 0L176 125.28 75.93 25.21c-12.279-12.28-32.199-12.28-44.48 0L9.21 47.45c-12.28 12.29-12.28 32.2 0 44.48L109.28 192 9.21 292.07c-12.28 12.29-12.28 32.2 0 44.48l22.24 22.24c12.29 12.28 32.201 12.28 44.48 0L176 258.72l100.07 100.07c12.29 12.28 32.2 12.28 44.48 0l22.24-22.24c12.28-12.29 12.28-32.2 0-44.48z"/><glyph glyph-name="search-plus" unicode="" d="M304 256v-32c0-6.6-5.4-12-12-12h-56v-56c0-6.6-5.4-12-12-12h-32c-6.6 0-12 5.4-12 12v56h-56c-6.6 0-12 5.4-12 12v32c0 6.6 5.4 12 12 12h56v56c0 6.6 5.4 12 12 12h32c6.6 0 12-5.4 12-12v-56h56c6.6 0 12-5.4 12-12zM505-28.7L476.7-57c-9.4-9.4-24.6-9.4-33.9 0L343 42.7c-4.5 4.5-7 10.6-7 17V76c-35.3-27.6-79.7-44-128-44C93.1 32 0 125.1 0 240s93.1 208 208 208 208-93.1 208-208c0-48.3-16.4-92.7-44-128h16.3c6.4 0 12.5-2.5 17-7L505 5.3c9.3-9.4 9.3-24.6 0-34zM344 240c0 75.2-60.8 136-136 136S72 315.2 72 240s60.8-136 136-136 136 60.8 136 136z"/><glyph glyph-name="search-minus" unicode="" d="M304 256v-32c0-6.6-5.4-12-12-12H124c-6.6 0-12 5.4-12 12v32c0 6.6 5.4 12 12 12h168c6.6 0 12-5.4 12-12zM505-28.7L476.7-57c-9.4-9.4-24.6-9.4-33.9 0L343 42.7c-4.5 4.5-7 10.6-7 17V76c-35.3-27.6-79.7-44-128-44C93.1 32 0 125.1 0 240s93.1 208 208 208 208-93.1 208-208c0-48.3-16.4-92.7-44-128h16.3c6.4 0 12.5-2.5 17-7L505 5.3c9.3-9.4 9.3-24.6 0-34zM344 240c0 75.2-60.8 136-136 136S72 315.2 72 240s60.8-136 136-136 136 60.8 136 136z"/><glyph glyph-name="power-off" unicode="" d="M400 393.9c63-45 104-118.601 104-201.9C504 55.2 393.2-55.7 256.5-56 120-56.3 8.2 55 8 191.6c-.1 83.3 40.9 157.101 103.8 202.2 11.7 8.3 28 4.8 35-7.7l15.8-28.1c5.9-10.5 3.1-23.8-6.6-31-41.5-30.8-68-79.6-68-134.9C87.9 99.8 162.5 24 256 24c91.6 0 168.6 74.2 168 169.1-.3 51.801-24.7 101.801-68.1 134-9.7 7.2-12.4 20.5-6.5 30.9l15.8 28.1c7 12.4 23.2 16.1 34.8 7.801zM296 184c0-13.3-10.7-24-24-24h-32c-13.3 0-24 10.7-24 24v240c0 13.3 10.7 24 24 24h32c13.3 0 24-10.7 24-24V184z"/><glyph glyph-name="signal" unicode="" horiz-adv-x="640" d="M216 160c8.84 0 16-7.16 16-16V-48c0-8.84-7.16-16-16-16h-48c-8.84 0-16 7.16-16 16v192c0 8.84 7.16 16 16 16h48zM88 64c8.84 0 16-7.16 16-16v-96c0-8.84-7.16-16-16-16H40c-8.84 0-16 7.16-16 16v96c0 8.84 7.16 16 16 16h48zm256 192c8.84 0 16-7.16 16-16V-48c0-8.84-7.16-16-16-16h-48c-8.84 0-16 7.16-16 16v288c0 8.84 7.16 16 16 16h48zm128 96c8.84 0 16-7.16 16-16V-48c0-8.84-7.16-16-16-16h-48c-8.84 0-16 7.16-16 16v384c0 8.84 7.16 16 16 16h48zm128 96c8.84 0 16-7.16 16-16V-48c0-8.84-7.16-16-16-16h-48c-8.84 0-16 7.16-16 16v480c0 8.84 7.16 16 16 16h48z"/><glyph glyph-name="cog" unicode="" d="M487.4 132.3c4.9-2.8 7.1-8.6 5.6-14.1-11.1-35.7-30-67.9-54.7-94.6-3.8-4.2-9.9-5.1-14.8-2.3l-42.6 24.6c-18-15.3-38.6-27.2-60.8-35.1v-49.2c0-5.6-3.9-10.5-9.4-11.7-34.9-7.8-72.5-8.2-109.2 0-5.5 1.2-9.4 6.1-9.4 11.7v49.2c-22.3 7.8-42.9 19.7-60.8 35.1L88.7 21.3c-4.8-2.8-11-1.8-14.8 2.3-24.7 26.8-43.6 59-54.7 94.6-1.6 5.4.6 11.2 5.5 14l42.6 24.6c-4.3 23.2-4.3 47 0 70.2l-42.6 24.6c-4.9 2.8-7.2 8.6-5.5 14 11.1 35.7 30 67.9 54.7 94.6 3.8 4.2 9.9 5.1 14.8 2.3l42.5-24.6c18 15.3 38.6 27.2 60.8 35.1v49.2c0 5.6 3.9 10.5 9.4 11.7 34.9 7.8 72.5 8.2 109.2 0 5.5-1.2 9.4-6.1 9.4-11.7v-49.1c22.3-7.8 42.9-19.7 60.8-35.1l42.6 24.6c4.8 2.8 11 1.8 14.8-2.3 24.7-26.8 43.6-59 54.7-94.6 1.6-5.4-.6-11.2-5.5-14l-42.6-24.6c4.3-23.2 4.3-47 0-70.2zM256 112c44.1 0 80 35.9 80 80s-35.9 80-80 80-80-35.9-80-80 35.9-80 80-80z"/><glyph glyph-name="home" unicode="" horiz-adv-x="576" d="M280.37 299.74c1.849 1.49 5.275 2.7 7.65 2.7 2.374 0 5.801-1.21 7.65-2.7L480 148V-16c0-8.832-7.168-16-16-16l-112.02.31h-.001c-8.832 0-16 7.168-16 16V80c0 8.832-7.168 16-16 16h-64c-8.831 0-16-7.168-16-16v-95.71c0-8.788-7.132-15.956-15.92-16L111.999-32c-8.832 0-16 7.168-16 16v163.89zM571.6 196.53c2.445-1.988 4.43-6.16 4.43-9.31 0-2.374-1.223-5.787-2.73-7.62l-25.5-31c-1.986-2.404-6.13-4.355-9.249-4.355-2.386 0-5.813 1.234-7.65 2.755L295.67 340.74c-1.849 1.49-5.276 2.699-7.65 2.699-2.375 0-5.801-1.209-7.65-2.7L45.151 147c-1.837-1.516-5.26-2.747-7.643-2.747-3.128 0-7.28 1.962-9.267 4.378l-25.5 31c-1.52 1.837-2.755 5.265-2.755 7.65 0 3.12 1.951 7.263 4.354 9.25L257.47 405c7.336 6.036 21 10.935 30.5 10.935 9.501 0 23.165-4.899 30.5-10.935L408 331.34v72.61c0 6.624 5.377 12 12 12h56c6.625 0 12-5.376 12-12V265.44z"/><glyph glyph-name="clock" unicode="" d="M256 440c137 0 248-111 248-248S393-56 256-56 8 55 8 192s111 248 248 248zm57.1-350.1c5.4-3.9 12.9-2.7 16.8 2.6l28.2 38.8c3.9 5.4 2.8 12.9-2.6 16.8L292 194.3V332c0 6.6-5.4 12-12 12h-48c-6.6 0-12-5.4-12-12V163.7c0-3.8 1.8-7.4 4.9-9.7z"/><glyph glyph-name="road" unicode="" horiz-adv-x="576" d="M573.19 45.33C582.45 24.14 567.69 0 545.46 0H348.62l-10.311 97.68c-.86 8.14-7.72 14.32-15.91 14.32h-68.8c-8.19 0-15.05-6.18-15.91-14.32L227.38 0H30.54C8.31 0-6.45 24.14 2.8 45.33l139.79 320c4.97 11.38 15.8 18.67 27.73 18.67h97.59l-2.45-23.16c-.5-4.72 3.21-8.84 7.96-8.84h29.16c4.75 0 8.46 4.12 7.96 8.84L308.09 384h97.59c11.92 0 22.75-7.29 27.72-18.67zM260.4 312.84l-4.59-43.58c-.75-7.09 4.8-13.26 11.93-13.26h40.54c7.12 0 12.68 6.17 11.93 13.26l-4.6 43.58a8.007 8.007 0 01-7.96 7.16h-39.295c-3.974 0-7.538-3.208-7.955-7.16zM315.64 144c9.5 0 16.91 8.23 15.91 17.68l-5.07 48c-.86 8.14-7.72 14.32-15.91 14.32h-45.15c-8.19 0-15.05-6.18-15.91-14.32l-5.07-48c-1-9.45 6.41-17.68 15.91-17.68h55.29z"/><glyph glyph-name="download" unicode="" d="M216 448h80c13.3 0 24-10.7 24-24V256h87.7c17.8 0 26.7-21.5 14.1-34.1L269.7 69.7c-7.5-7.5-19.8-7.5-27.3 0L90.099 221.9c-12.6 12.6-3.7 34.1 14.1 34.1H192v168c0 13.3 10.7 24 24 24zM512 72V-40c0-13.3-10.7-24-24-24H24C10.7-64 0-53.3 0-40V72c0 13.3 10.7 24 24 24h146.7l49-49c20.1-20.1 52.5-20.1 72.6 0l49 49H488c13.3 0 24-10.7 24-24zM388-16c0 11-9 20-20 20s-20-9-20-20 9-20 20-20 20 9 20 20zm64 0c0 11-9 20-20 20s-20-9-20-20 9-20 20-20 20 9 20 20z"/><glyph glyph-name="inbox" unicode="" horiz-adv-x="576" d="M567.938 204.092c4.45-6.675 8.062-18.602 8.062-26.624V48c0-26.51-21.49-48-48-48H48C21.49 0 0 21.49 0 48v129.468c0 8.021 3.61 19.95 8.061 26.624L113.75 362.626C121.616 374.425 139.508 384 153.689 384h268.62c14.181 0 32.074-9.576 39.94-21.374zM162.252 320L76.918 192H200l32-64h112l32 64h123.082l-85.333 128H162.252z"/><glyph glyph-name="redo" unicode="" d="M500.33 448c6.624 0 12-5.376 12-12V235.66c0-6.624-5.376-12-12-12H300c-6.624 0-12 5.376-12 12v47.424c0 6.624 5.376 12 12 12 .157 0 .413-.007.57-.014l101.53-4.87c-28.873 42.961-94.315 77.828-146.077 77.828-97.151 0-176-78.848-176-176s78.849-176 176-176c36.655 0 88.738 19.65 116.257 43.861 1.872 1.637 5.41 2.964 7.896 2.964 2.743 0 6.544-1.574 8.484-3.513l34-34c1.942-1.94 3.518-5.743 3.518-8.489 0-2.96-1.791-6.966-3.998-8.941C383.209-27.368 308.916-56 256.349-56H256C119.1-56 8.1 54.93 8 191.81 7.9 328.47 119.34 440 256 440h.273c63.224 0 147.739-39.124 188.647-87.33l-4 82.76c-.008.157-.014.413-.014.57 0 6.624 5.376 12 12 12h47.424z"/><glyph glyph-name="sync" unicode="" d="M440.65 435.43c-.008.157-.014.413-.014.57 0 6.62 5.373 11.996 11.994 12H500c6.624 0 12-5.376 12-12V235.65c0-6.624-5.376-12-12-12H299.78c-6.624 0-12 5.376-12 12v47.423c0 6.624 5.376 12 12 12 .157 0 .412-.006.569-.013l101.46-4.86c-28.858 42.925-94.26 77.763-145.984 77.763-76.483 0-153.099-60.347-171.016-134.703-1.197-5.106-6.425-9.254-11.67-9.26H24.09c-6.624 0-12 5.376-12 12 0 .607.09 1.583.2 2.18C33.91 353.08 134.73 440 255.83 440h.285c63.203 0 147.667-39.128 188.536-87.34zM255.83 16c76.497 0 153.144 60.363 171.03 134.74 1.197 5.105 6.425 9.254 11.67 9.26h49.05c6.624 0 12-5.376 12-12 0-.607-.09-1.583-.2-2.18C477.76 30.92 376.94-56 255.83-56h-.235C192.466-56 108.065-16.948 67.2 31.17l4.15-82.57c.008-.165.015-.434.015-.6 0-6.624-5.376-12-12-12H12C5.376-64 0-58.624 0-52v200.33c0 6.624 5.376 12 12 12h200.2c6.624 0 12-5.376 12-12v-47.414c0-6.624-5.376-12-12-12-.157 0-.413.007-.57.014l-101.8 4.87C138.63 50.854 203.97 16 255.68 16h.15z"/><glyph glyph-name="list-alt" unicode="" d="M464-32H48C21.49-32 0-10.51 0 16v352c0 26.51 21.49 48 48 48h416c26.51 0 48-21.49 48-48V16c0-26.51-21.49-48-48-48zM128 328c-22.09 0-40-17.91-40-40s17.91-40 40-40 40 17.91 40 40-17.91 40-40 40zm0-96c-22.09 0-40-17.91-40-40s17.91-40 40-40 40 17.91 40 40-17.91 40-40 40zm0-96c-22.09 0-40-17.91-40-40s17.91-40 40-40 40 17.91 40 40-17.91 40-40 40zm288 136v32c0 6.627-5.373 12-12 12H204c-6.627 0-12-5.373-12-12v-32c0-6.627 5.373-12 12-12h200c6.627 0 12 5.373 12 12zm0-96v32c0 6.627-5.373 12-12 12H204c-6.627 0-12-5.373-12-12v-32c0-6.627 5.373-12 12-12h200c6.627 0 12 5.373 12 12zm0-96v32c0 6.627-5.373 12-12 12H204c-6.627 0-12-5.373-12-12V80c0-6.627 5.373-12 12-12h200c6.627 0 12 5.373 12 12z"/><glyph glyph-name="lock" unicode="" horiz-adv-x="448" d="M400 224c26.5 0 48-21.5 48-48V-16c0-26.5-21.5-48-48-48H48C21.5-64 0-42.5 0-16v192c0 26.5 21.5 48 48 48h24v72c0 83.8 68.2 152 152 152s152-68.2 152-152v-72h24zm-104 0v72c0 39.7-32.3 72-72 72s-72-32.3-72-72v-72h144z"/><glyph glyph-name="flag" unicode="" d="M349.565 349.217c40.495 0 82.611 15.906 116.949 31.855 21.217 9.853 45.485-5.624 45.485-29.017v-243.1c0-10.526-5.16-20.407-13.842-26.358-35.838-24.564-74.336-40.858-122.505-40.858-67.373 0-111.63 34.783-165.218 34.783-50.853 0-86.124-10.058-114.435-22.122V-40c0-13.255-10.745-24-24-24h-16c-13.255 0-24 10.745-24 24v386.055c-14.503 10.12-24 26.919-24 45.945 0 31.704 26.344 57.254 58.338 55.952 28.467-1.158 51.779-23.967 53.55-52.403.063-.98.114-2.573.114-3.556 0-5.71-1.658-14.674-3.7-20.006 20.737 7.63 43.09 12.013 68.045 12.013 67.373 0 111.63-34.783 165.218-34.783z"/><glyph glyph-name="headphones" unicode="" d="M256 416c141.504 0 256-114.521 256-256v-48c0-10.917-7.925-23.74-17.69-28.622l-14.382-7.192C477.918 16.098 428.579-32 368-32h-24c-13.255 0-24 10.746-24 24v176c0 13.255 10.745 24 24 24h24c31.342 0 59.67-12.878 80-33.627V160c0 105.87-86.131 192-192 192S64 265.87 64 160v-1.627C84.329 179.12 112.658 192 144 192h24c13.255 0 24-10.745 24-24V-8c0-13.254-10.745-24-24-24h-24C83.42-32 34.083 16.096 32.072 76.186l-14.383 7.192C7.924 88.26-.001 101.083-.001 112v48c0 141.504 114.52 256 256 256z"/><glyph glyph-name="volume-off" unicode="" horiz-adv-x="256" d="M215 377c15 15 41 4.47 41-17V24c0-21.47-26-32-41-17l-88.94 89H24c-13.248 0-24 10.752-24 24v144c0 13.248 10.752 24 24 24h102z"/><glyph glyph-name="volume-down" unicode="" horiz-adv-x="384" d="M215.03 375.96c15.01 15 40.97 4.49 40.97-16.98V23.02c0-21.44-25.94-32-40.97-16.97L126.06 95H24c-13.26 0-24 10.75-24 24v144c0 13.26 10.74 24 24 24h102.06zm123.2-108.08c28.24-15.55 45.78-44.99 45.78-76.87s-17.54-61.33-45.77-76.88c-11.56-6.35-26.18-2.21-32.61 9.45-6.39 11.61-2.16 26.2 9.45 32.61C327.98 163.28 336 176.62 336 191s-8.02 27.72-20.93 34.82c-11.61 6.41-15.84 21-9.45 32.61 6.42 11.61 21.03 15.78 32.61 9.45z"/><glyph glyph-name="volume-up" unicode="" horiz-adv-x="576" d="M215.03 376.95c15.01 15.01 40.97 4.49 40.97-16.97V24.02c0-21.44-25.94-32-40.97-16.97L126.06 96H24c-13.26 0-24 10.75-24 24v144c0 13.26 10.74 24 24 24h102.06zm233.32 51.08C528.27 375.57 576 287.33 576 192S528.27 8.42 448.35-44.04c-11.58-7.61-26.47-3.76-33.51 6.95-7.34 11.16-4.22 26.18 6.95 33.5 66.27 43.49 105.82 116.6 105.82 195.58 0 78.98-39.55 152.09-105.82 195.58-11.17 7.33-14.29 22.34-6.95 33.51 7.33 11.19 22.34 14.28 33.51 6.95zM480 192c0-63.54-32.06-121.94-85.77-156.24-12-7.68-26.61-2.9-33.12 7.46-7.09 11.29-3.78 26.22 7.41 33.36C408.27 101.97 432 145.11 432 192s-23.73 90.03-63.48 115.42c-11.19 7.15-14.5 22.08-7.41 33.36 7.09 11.28 21.93 14.6 33.12 7.46C447.94 313.94 480 255.53 480 192zm-141.77 76.87c28.24-15.54 45.78-44.98 45.78-76.86s-17.54-61.33-45.77-76.88c-11.56-6.35-26.18-2.21-32.61 9.45-6.39 11.61-2.16 26.2 9.45 32.61C327.98 164.28 336 177.62 336 192c0 14.37-8.02 27.72-20.93 34.81-11.61 6.41-15.84 21-9.45 32.61 6.42 11.61 21.03 15.78 32.61 9.45z"/><glyph glyph-name="qrcode" unicode="" horiz-adv-x="448" d="M0 224v192h192V224H0zm64 128v-64h64v64H64zm192 64h192V224H256v192zm128-128v64h-64v-64h64zM0-32v192h192V-32H0zM64 96V32h64v64H64zm352 64h32V32h-96v32h-32v-96h-64v192h96v-32h64v32zm0-160h32v-32h-32V0zm-64 0h32v-32h-32V0z"/><glyph glyph-name="barcode" unicode="" d="M0 0v384h18V0H0zm26.857.273V384H36V.273h-9.143zM54 .273V384h8.857V.273H54zm44.857 0V384h8.857V.273h-8.857zm36 0V384h17.714V.273h-17.714zm44.857 0V384h8.857V.273h-8.857zm18 0V384h8.857V.273h-8.857zm18 0V384h8.857V.273h-8.857zm35.715 0V384h18V.273h-18zm44.857 0V384h18V.273h-18zm35.999 0V384h18.001V.273h-18.001zm36.001 0V384h18.001V.273h-18.001zm26.857 0V384h18V.273h-18zm45.143 0V384h26.856V.273h-26.856zm35.714 0V384h9.143V.273H476zM494 0v384h18V0h-18z"/><glyph glyph-name="tag" unicode="" d="M0 195.882V400c0 26.51 21.49 48 48 48h204.118c10.975 0 26.18-6.299 33.94-14.059l211.883-211.883c18.745-18.744 18.745-49.136 0-67.881L293.823-49.941c-18.745-18.745-49.137-18.745-67.881 0L14.059 161.942C6.299 169.702 0 184.907 0 195.882zM112 384c-26.51 0-48-21.49-48-48s21.49-48 48-48 48 21.49 48 48-21.49 48-48 48z"/><glyph glyph-name="tags" unicode="" horiz-adv-x="640" d="M497.941 222.059c18.744-18.744 18.744-49.137 0-67.882L293.823-49.94c-18.746-18.745-49.139-18.744-67.882 0L14.058 161.942C6.298 169.702 0 184.908 0 195.882v204.119c0 26.51 21.49 48 48 48h204.118c10.974 0 26.18-6.3 33.94-14.059zM112 288c26.51 0 48 21.49 48 48s-21.49 48-48 48-48-21.49-48-48 21.49-48 48-48zm513.941-133.823L421.823-49.941c-18.745-18.744-49.138-18.744-67.882 0l-.36.36L527.64 124.48c16.999 16.998 26.36 39.6 26.36 63.64s-9.362 46.64-26.36 63.64L331.398 448h48.72c10.975 0 26.181-6.3 33.94-14.059l211.884-211.883c18.744-18.744 18.744-49.137 0-67.882z"/><glyph glyph-name="book" unicode="" horiz-adv-x="448" d="M448 88c0-7.5-3.5-14.3-8.9-18.6-4.2-15.4-4.2-59.3 0-74.7 5.4-4.4 8.9-11.2 8.9-18.7v-16c0-13.3-10.7-24-24-24H96C43-64 0-21 0 32v320c0 53 43 96 96 96h328c13.3 0 24-10.7 24-24V88zM128 314v-20c0-3.3 2.7-6 6-6h212c3.3 0 6 2.7 6 6v20c0 3.3-2.7 6-6 6H134c-3.3 0-6-2.7-6-6zm0-64v-20c0-3.3 2.7-6 6-6h212c3.3 0 6 2.7 6 6v20c0 3.3-2.7 6-6 6H134c-3.3 0-6-2.7-6-6zM381.4 0c-1.9 17.1-1.9 46.9 0 64H96c-17.6 0-32-14.4-32-32C64 14.3 78.3 0 96 0h285.4z"/><glyph glyph-name="bookmark" unicode="" horiz-adv-x="384" d="M0-64v464c0 26.51 21.49 48 48 48h288c26.51 0 48-21.49 48-48V-64L192 48z"/><glyph glyph-name="print" unicode="" d="M448 256c35.35 0 64-28.65 64-64V80c0-8.84-7.16-16-16-16h-48v-96c0-17.67-14.33-32-32-32H96c-17.67 0-32 14.33-32 32v96H16C7.16 64 0 71.16 0 80v112c0 35.35 28.65 64 64 64v160c0 17.67 14.33 32 32 32h274.74a32 32 0 0022.63-9.37l45.26-45.25c6-6.01 9.37-14.14 9.37-22.63V256zM384 0v96H128V0h256zm0 224v96h-48c-8.84 0-16 7.16-16 16v48H128V224h256zm48-72c13.25 0 24 10.75 24 24 0 13.26-10.75 24-24 24s-24-10.74-24-24c0-13.25 10.75-24 24-24z"/><glyph glyph-name="camera" unicode="" d="M512 304V16c0-26.5-21.5-48-48-48H48C21.5-32 0-10.5 0 16v288c0 26.5 21.5 48 48 48h88l12.3 32.9c7 18.7 24.9 31.1 44.9 31.1h125.5c20 0 37.9-12.4 44.9-31.1L376 352h88c26.5 0 48-21.5 48-48zM376 160c0 66.2-53.8 120-120 120s-120-53.8-120-120S189.8 40 256 40s120 53.8 120 120zm-32 0c0-48.5-39.5-88-88-88s-88 39.5-88 88 39.5 88 88 88 88-39.5 88-88z"/><glyph glyph-name="font" unicode="" horiz-adv-x="448" d="M432 32c8.832 0 16-7.168 16-16v-32c0-8.832-7.168-16-16-16H304c-8.832 0-16 7.168-16 16v32c0 8.832 7.168 16 16 16h19.58l-23.3 64H147.72l-23.3-64H144c8.832 0 16-7.168 16-16v-32c0-8.832-7.168-16-16-16H16C7.168-32 0-24.832 0-16v32c0 8.832 7.168 16 16 16h23.41l130.71 362.31c4.074 11.974 17.646 21.69 30.294 21.69h47.172c12.647 0 26.22-9.716 30.294-21.69L408.59 32H432zM176.85 176h94.3L224 305.49z"/><glyph glyph-name="bold" unicode="" horiz-adv-x="384" d="M333.49 210c34.44-27.54 55.57-71.15 50.83-119.6-6.86-70.65-70.2-122.4-141-122.4H34c-8.832 0-16 7.168-16 16v48c0 8.832 7.168 16 16 16h31.87v288H34c-8.832 0-16 7.168-16 16v48c0 8.832 7.168 16 16 16h199.42c74.58 0 134.45-64.49 127.07-140.79-2.014-20.25-14.11-49.464-27-65.21zM145.66 336v-96h87.76c26.496 0 48 21.504 48 48s-21.504 48-48 48h-87.76zm87.76-288c30.912 0 56 25.088 56 56s-25.088 56-56 56h-87.76V48h87.76z"/><glyph glyph-name="italic" unicode="" horiz-adv-x="320" d="M320 400v-32c0-8.832-7.168-16-16-16h-62.76l-80-320H208c8.832 0 16-7.168 16-16v-32c0-8.832-7.168-16-16-16H16C7.168-32 0-24.832 0-16v32c0 8.832 7.168 16 16 16h62.76l80 320H112c-8.832 0-16 7.168-16 16v32c0 8.832 7.168 16 16 16h192c8.832 0 16-7.168 16-16z"/><glyph glyph-name="text-height" unicode="" horiz-adv-x="576" d="M304 416c8.832 0 16-7.168 16-16v-96c0-8.832-7.168-16-16-16h-32c-8.832 0-16 7.168-16 16v32h-56V32h40c8.832 0 16-7.168 16-16v-32c0-8.832-7.168-16-16-16H80c-8.832 0-16 7.168-16 16v32c0 8.832 7.168 16 16 16h40v304H64v-32c0-8.832-7.168-16-16-16H16c-8.832 0-16 7.168-16 16v96c0 8.832 7.168 16 16 16h288zM560 80c15.64 0 20.64-18 11.31-27.31l-80-80c-2.586-2.585-7.654-4.682-11.31-4.682s-8.724 2.097-11.31 4.682l-80 80c-10.01 10-3 27.31 11.31 27.31h48v224h-48c-15.64 0-20.64 18-11.31 27.31l80 80c2.586 2.585 7.654 4.682 11.31 4.682s8.724-2.097 11.31-4.682l80-80c10.02-10 3-27.31-11.31-27.31h-48V80h48z"/><glyph glyph-name="text-width" unicode="" horiz-adv-x="448" d="M432 416c8.832 0 16-7.168 16-16v-80c0-8.832-7.168-16-16-16h-32c-8.832 0-16 7.168-16 16v16H264V224h24c8.832 0 16-7.168 16-16v-32c0-8.832-7.168-16-16-16H160c-8.832 0-16 7.168-16 16v32c0 8.832 7.168 16 16 16h24v112H64v-16c0-8.832-7.168-16-16-16H16c-8.832 0-16 7.168-16 16v80c0 8.832 7.168 16 16 16h416zm-68.69-260.69l80-80c2.585-2.586 4.683-7.653 4.683-11.31s-2.098-8.723-4.683-11.31l-80-80c-10-10.02-27.31-3-27.31 11.31v48H112v-48c0-15.64-18-20.64-27.31-11.31l-80 80C2.107 55.278.009 60.345.009 64s2.098 8.724 4.683 11.31l80 80c10 10.01 27.31 3 27.31-11.31V96h224v48c0 15.64 18 20.64 27.309 11.31z"/><glyph glyph-name="align-left" unicode="" horiz-adv-x="448" d="M12.83 96C5.753 96 0 101.743 0 108.82v38.36C0 154.257 5.743 160 12.82 160h262.36c7.077 0 12.82-5.743 12.82-12.82v-38.36c0-7.077-5.743-12.82-12.82-12.82H12.83zm0 256C5.753 352 0 357.743 0 364.82v38.36C0 410.257 5.743 416 12.82 416h262.36c7.077 0 12.82-5.743 12.82-12.82v-38.36c0-7.077-5.743-12.82-12.82-12.82H12.83zM432 288c8.832 0 16-7.168 16-16v-32c0-8.832-7.168-16-16-16H16c-8.832 0-16 7.168-16 16v32c0 8.832 7.168 16 16 16h416zm0-256c8.832 0 16-7.168 16-16v-32c0-8.832-7.168-16-16-16H16C7.168-32 0-24.832 0-16v32c0 8.832 7.168 16 16 16h416z"/><glyph glyph-name="align-center" unicode="" horiz-adv-x="448" d="M432 288c8.832 0 16-7.168 16-16v-32c0-8.832-7.168-16-16-16H16c-8.832 0-16 7.168-16 16v32c0 8.832 7.168 16 16 16h416zm0-256c8.832 0 16-7.168 16-16v-32c0-8.832-7.168-16-16-16H16C7.168-32 0-24.832 0-16v32c0 8.832 7.168 16 16 16h416zM108.1 352c-6.679 0-12.1 5.42-12.1 12.1v39.81c0 6.674 5.416 12.09 12.09 12.09h231.821c6.674 0 12.09-5.416 12.09-12.09v-39.82c0-6.674-5.416-12.09-12.09-12.09H108.1zM339.91 96H108.099c-6.679 0-12.1 5.42-12.1 12.1v39.81c0 6.674 5.416 12.09 12.09 12.09H339.91c6.674 0 12.09-5.416 12.09-12.09v-39.82c0-6.674-5.416-12.09-12.09-12.09z"/><glyph glyph-name="align-right" unicode="" horiz-adv-x="448" d="M16 224c-8.832 0-16 7.168-16 16v32c0 8.832 7.168 16 16 16h416c8.832 0 16-7.168 16-16v-32c0-8.832-7.168-16-16-16H16zM432 32c8.832 0 16-7.168 16-16v-32c0-8.832-7.168-16-16-16H16C7.168-32 0-24.832 0-16v32c0 8.832 7.168 16 16 16h416zm3.17 384c7.077 0 12.83-5.743 12.83-12.82v-38.36c0-7.077-5.743-12.82-12.82-12.82H172.82c-7.077 0-12.82 5.743-12.82 12.82v38.36c0 7.077 5.743 12.82 12.82 12.82h262.35zm0-256c7.077 0 12.83-5.743 12.83-12.82v-38.36c0-7.077-5.743-12.82-12.82-12.82H172.82c-7.077 0-12.82 5.743-12.82 12.82v38.36c0 7.077 5.743 12.82 12.82 12.82h262.35z"/><glyph glyph-name="align-justify" unicode="" horiz-adv-x="448" d="M432 32c8.832 0 16-7.168 16-16v-32c0-8.832-7.168-16-16-16H16C7.168-32 0-24.832 0-16v32c0 8.832 7.168 16 16 16h416zm0 128c8.832 0 16-7.168 16-16v-32c0-8.832-7.168-16-16-16H16c-8.832 0-16 7.168-16 16v32c0 8.832 7.168 16 16 16h416zm0 128c8.832 0 16-7.168 16-16v-32c0-8.832-7.168-16-16-16H16c-8.832 0-16 7.168-16 16v32c0 8.832 7.168 16 16 16h416zm0 128c8.832 0 16-7.168 16-16v-32c0-8.832-7.168-16-16-16H16c-8.832 0-16 7.168-16 16v32c0 8.832 7.168 16 16 16h416z"/><glyph glyph-name="list" unicode="" d="M80 80c8.832 0 16-7.168 16-16V0c0-8.832-7.168-16-16-16H16C7.168-16 0-8.832 0 0v64c0 8.832 7.168 16 16 16h64zm0 320c8.832 0 16-7.168 16-16v-64c0-8.832-7.168-16-16-16H16c-8.832 0-16 7.168-16 16v64c0 8.832 7.168 16 16 16h64zm0-160c8.832 0 16-7.168 16-16v-64c0-8.832-7.168-16-16-16H16c-8.832 0-16 7.168-16 16v64c0 8.832 7.168 16 16 16h64zM496 64c8.832 0 16-7.168 16-16V16c0-8.832-7.168-16-16-16H176c-8.832 0-16 7.168-16 16v32c0 8.832 7.168 16 16 16h320zm0 320c8.832 0 16-7.168 16-16v-32c0-8.832-7.168-16-16-16H176c-8.832 0-16 7.168-16 16v32c0 8.832 7.168 16 16 16h320zm0-160c8.832 0 16-7.168 16-16v-32c0-8.832-7.168-16-16-16H176c-8.832 0-16 7.168-16 16v32c0 8.832 7.168 16 16 16h320z"/><glyph glyph-name="outdent" unicode="" horiz-adv-x="448" d="M100.69 84.71l-96 95.98C2.105 183.276.007 188.344.007 192s2.098 8.724 4.683 11.31l96 96c9.98 10 27.31 3.01 27.31-11.31V96.02c0-14.24-17.31-21.31-27.31-11.31zM432 32c8.832 0 16-7.168 16-16v-32c0-8.832-7.168-16-16-16H16C7.168-32 0-24.832 0-16v32c0 8.832 7.168 16 16 16h416zm3.17 128c7.077 0 12.83-5.743 12.83-12.82v-38.36c0-7.077-5.743-12.82-12.82-12.82H204.82c-7.077 0-12.82 5.743-12.82 12.82v38.36c0 7.077 5.743 12.82 12.82 12.82h230.35zm0 128c7.077 0 12.83-5.743 12.83-12.82v-38.36c0-7.077-5.743-12.82-12.82-12.82H204.82c-7.077 0-12.82 5.743-12.82 12.82v38.36c0 7.077 5.743 12.82 12.82 12.82h230.35zM432 416c8.832 0 16-7.168 16-16v-32c0-8.832-7.168-16-16-16H16c-8.832 0-16 7.168-16 16v32c0 8.832 7.168 16 16 16h416z"/><glyph glyph-name="indent" unicode="" horiz-adv-x="448" d="M27.31 84.7C17.33 74.7 0 81.69 0 96v192c0 14.22 17.27 21.34 27.31 11.32l96-96c2.585-2.587 4.682-7.653 4.682-11.31 0-3.656-2.097-8.724-4.682-11.31zM432 32c8.832 0 16-7.168 16-16v-32c0-8.832-7.168-16-16-16H16C7.168-32 0-24.832 0-16v32c0 8.832 7.168 16 16 16h416zm3.17 128c7.077 0 12.83-5.743 12.83-12.82v-38.36c0-7.077-5.743-12.82-12.82-12.82H204.82c-7.077 0-12.82 5.743-12.82 12.82v38.36c0 7.077 5.743 12.82 12.82 12.82h230.35zm0 128c7.077 0 12.83-5.743 12.83-12.82v-38.36c0-7.077-5.743-12.82-12.82-12.82H204.82c-7.077 0-12.82 5.743-12.82 12.82v38.36c0 7.077 5.743 12.82 12.82 12.82h230.35zM432 416c8.832 0 16-7.168 16-16v-32c0-8.832-7.168-16-16-16H16c-8.832 0-16 7.168-16 16v32c0 8.832 7.168 16 16 16h416z"/><glyph glyph-name="video" unicode="" horiz-adv-x="576" d="M336.2 384c26.4 0 47.8-21.4 47.8-47.8V47.8C384 21.4 362.6 0 336.2 0H47.8C21.4 0 0 21.4 0 47.8v288.4C0 362.6 21.4 384 47.8 384h288.4zm189.4-37.7c21.3 14.6 50.4-.4 50.4-25.8V63.6c0-25.5-29.2-40.4-50.4-25.8L416 113.3v157.4z"/><glyph glyph-name="image" unicode="" d="M464 0H48C21.49 0 0 21.49 0 48v288c0 26.51 21.49 48 48 48h416c26.51 0 48-21.49 48-48V48c0-26.51-21.49-48-48-48zM112 328c-30.928 0-56-25.072-56-56s25.072-56 56-56 56 25.072 56 56-25.072 56-56 56zM64 64h384v112l-87.515 87.515c-4.686 4.686-12.284 4.686-16.971 0L208 128l-55.515 55.514c-4.686 4.687-12.284 4.687-16.972 0L64 112V64z"/><glyph glyph-name="map-marker" unicode="" horiz-adv-x="384" d="M172.268-53.67C26.97 156.97 0 178.587 0 256c0 106.04 85.96 192 192 192s192-85.96 192-192c0-77.413-26.97-99.031-172.268-309.67-9.535-13.774-29.93-13.773-39.465 0z"/><glyph glyph-name="adjust" unicode="" d="M8 192c0 136.967 111.034 248 248 248s248-111.034 248-248S392.967-56 256-56 8 55.034 8 192zM256 8c101.689 0 184 82.295 184 184 0 101.689-82.295 184-184 184V8z"/><glyph glyph-name="tint" unicode="" horiz-adv-x="352" d="M205.22 425.91C252.21 267.43 352 225.84 352 114.09 352 15.65 273.28-64 176-64S0 15.65 0 114.09c0 111.19 100.01 154.061 146.78 311.82 9 30.12 50.5 28.78 58.44 0zM176 0c8.84 0 16 7.16 16 16s-7.16 16-16 16c-44.11 0-80 35.89-80 80 0 8.84-7.16 16-16 16s-16-7.16-16-16C64 50.25 114.25 0 176 0z"/><glyph glyph-name="edit" unicode="" horiz-adv-x="576" d="M402.6 364.8l90.2-90.2c3.8-3.8 3.8-10 0-13.8L274.401 42.401l-92.8-10.3c-12.4-1.4-22.9 9.1-21.5 21.5l10.3 92.8 218.4 218.399c3.799 3.8 10 3.8 13.799 0zm162 22.9c15.2-15.2 15.2-39.9 0-55.2l-35.4-35.4c-3.8-3.8-10-3.8-13.8 0l-90.2 90.2c-3.8 3.8-3.8 10 0 13.8l35.4 35.4c15.3 15.2 40 15.2 55.2 0zM384 101.8c0 3.2 1.3 6.2 3.5 8.5l40 40c7.6 7.5 20.5 2.2 20.5-8.5V-16c0-26.5-21.5-48-48-48H48C21.5-64 0-42.5 0-16v352c0 26.5 21.5 48 48 48h285.8c10.7 0 16.1-12.9 8.5-20.5l-40-40c-2.3-2.2-5.3-3.5-8.5-3.5H64V0h320v101.8z"/><glyph glyph-name="step-backward" unicode="" horiz-adv-x="448" d="M64-20v424c0 6.6 5.4 12 12 12h48c6.6 0 12-5.4 12-12V227.6l195.5 181c20.6 17.1 52.5 2.8 52.5-24.6V0c0-27.4-31.9-41.7-52.5-24.6L136 155.3V-20c0-6.6-5.4-12-12-12H76c-6.6 0-12 5.4-12 12z"/><glyph glyph-name="fast-backward" unicode="" d="M0 12v360c0 6.6 5.4 12 12 12h40c6.6 0 12-5.4 12-12V220.1l171.5 156.5c20.6 17.1 52.5 2.8 52.5-24.6V220.1l171.5 156.5c20.6 17.101 52.5 2.801 52.5-24.6V32c0-27.4-31.9-41.7-52.5-24.599L288 162.701v-130.7c0-27.4-31.9-41.7-52.5-24.6L64 162.702v-150.7c0-6.599-5.4-12-12-12H12c-6.6 0-12 5.401-12 12z"/><glyph glyph-name="backward" unicode="" d="M11.5 167.4c-15.3 12.8-15.3 36.4 0 49.2l192 160c20.6 17.2 52.5 2.8 52.5-24.6V32c0-27.4-31.9-41.8-52.5-24.6zm256 0c-15.3 12.8-15.3 36.4 0 49.2l192 160c20.6 17.2 52.5 2.8 52.5-24.6V32c0-27.4-31.9-41.8-52.5-24.6z"/><glyph glyph-name="play" unicode="" horiz-adv-x="448" d="M424.4 233.3c31.5-18.5 31.4-64.1 0-82.6l-352-208C40.7-76.1 0-53.5 0-16v416.1c0 41.801 43.8 58.2 72.4 41.301z"/><glyph glyph-name="pause" unicode="" horiz-adv-x="448" d="M144-31H48C21.5-31 0-9.5 0 17v352c0 26.5 21.5 48 48 48h96c26.5 0 48-21.5 48-48V17c0-26.5-21.5-48-48-48zm304 48c0-26.5-21.5-48-48-48h-96c-26.5 0-48 21.5-48 48v352c0 26.5 21.5 48 48 48h96c26.5 0 48-21.5 48-48V17z"/><glyph glyph-name="stop" unicode="" horiz-adv-x="448" d="M400 416c26.5 0 48-21.5 48-48V16c0-26.5-21.5-48-48-48H48C21.5-32 0-10.5 0 16v352c0 26.5 21.5 48 48 48h352z"/><glyph glyph-name="forward" unicode="" d="M500.5 216.6c15.3-12.8 15.3-36.4 0-49.2l-192-160C287.9-9.8 256 4.6 256 32v320c0 27.4 31.9 41.7 52.5 24.6zm-256 0c15.3-12.8 15.3-36.4 0-49.2l-192-160C31.9-9.8 0 4.6 0 32v320c0 27.4 31.9 41.7 52.5 24.6z"/><glyph glyph-name="fast-forward" unicode="" d="M512 372V12c0-6.6-5.4-12-12-12h-40c-6.6 0-12 5.4-12 12v151.9L276.5 7.4C255.9-9.8 224 4.6 224 32v131.9L52.5 7.4C31.9-9.8 0 4.599 0 32v320c0 27.4 31.9 41.7 52.5 24.599l171.5-155.4V352c0 27.401 31.9 41.701 52.5 24.6L448 221.2V372c0 6.6 5.4 12 12 12h40c6.6 0 12-5.4 12-12z"/><glyph glyph-name="step-forward" unicode="" horiz-adv-x="448" d="M384 404V-20c0-6.6-5.4-12-12-12h-48c-6.6 0-12 5.4-12 12v176.4l-195.5-181C95.9-41.7 64-27.4 64 0v384c0 27.4 31.9 41.7 52.5 24.6L312 228.7V404c0 6.6 5.4 12 12 12h48c6.6 0 12-5.4 12-12z"/><glyph glyph-name="eject" unicode="" horiz-adv-x="448" d="M448 64V0c0-17.673-14.327-32-32-32H32C14.327-32 0-17.673 0 0v64c0 17.673 14.327 32 32 32h384c17.673 0 32-14.327 32-32zM48.053 128c-41.729 0-63.528 49.732-35.383 80.435l175.946 192.008c19.015 20.743 51.753 20.742 70.766 0l175.94-192.008C463.519 177.674 441.589 128 399.939 128H48.052z"/><glyph glyph-name="chevron-left" unicode="" horiz-adv-x="320" d="M34.52 208.97l194.35 194.34c9.37 9.37 24.57 9.37 33.94 0l22.67-22.67c9.36-9.36 9.37-24.52.04-33.9L131.491 192l154.02-154.75c9.34-9.38 9.32-24.54-.04-33.9L262.8-19.32c-9.37-9.37-24.57-9.37-33.94 0L34.522 175.031c-9.37 9.37-9.37 24.57 0 33.94z"/><glyph glyph-name="chevron-right" unicode="" horiz-adv-x="320" d="M285.476 175.029L91.132-19.315c-9.373-9.372-24.568-9.372-33.94 0L34.525 3.352c-9.358 9.357-9.375 24.523-.04 33.901L188.505 192 34.486 346.744c-9.335 9.38-9.318 24.544.04 33.902l22.667 22.667c9.373 9.372 24.568 9.372 33.94 0l194.343-194.344c9.373-9.372 9.373-24.568.001-33.94z"/><glyph glyph-name="plus-circle" unicode="" d="M256 440c137 0 248-111 248-248S393-56 256-56 8 55 8 192s111 248 248 248zm144-276v56c0 6.6-5.4 12-12 12h-92v92c0 6.6-5.4 12-12 12h-56c-6.6 0-12-5.4-12-12v-92h-92c-6.6 0-12-5.4-12-12v-56c0-6.6 5.4-12 12-12h92V60c0-6.6 5.4-12 12-12h56c6.6 0 12 5.4 12 12v92h92c6.6 0 12 5.4 12 12z"/><glyph glyph-name="minus-circle" unicode="" d="M256 440c137 0 248-111 248-248S393-56 256-56 8 55 8 192s111 248 248 248zM124 152h264c6.6 0 12 5.4 12 12v56c0 6.6-5.4 12-12 12H124c-6.6 0-12-5.4-12-12v-56c0-6.6 5.4-12 12-12z"/><glyph glyph-name="times-circle" unicode="" d="M256 440c137 0 248-111 248-248S393-56 256-56 8 55 8 192s111 248 248 248zm121.6-313.1L312 192l65.7 65c4.7 4.7 4.7 12.3 0 17l-39.6 39.6c-4.7 4.7-12.3 4.7-17 0L256 248l-65 65.7c-4.7 4.7-12.3 4.7-17 0l-39.6-39.6c-4.7-4.7-4.7-12.3 0-17L200 192l-65.6-65c-4.7-4.7-4.7-12.3 0-17l39.5-39.6c4.7-4.7 12.3-4.7 17 0L256 136l65-65.6c4.7-4.7 12.3-4.7 17 0l39.6 39.5c4.7 4.7 4.7 12.3 0 17z"/><glyph glyph-name="check-circle" unicode="" d="M504 192C504 55.033 392.967-56 256-56S8 55.033 8 192s111.033 248 248 248 248-111.033 248-248zM227.314 60.685l184 184c6.247 6.249 6.247 16.38 0 22.628l-22.628 22.627c-6.247 6.25-16.379 6.25-22.628 0L216 139.881l-70.058 70.06c-6.248 6.248-16.38 6.248-22.628 0l-22.628-22.627c-6.247-6.248-6.247-16.38 0-22.628l104-104c6.249-6.248 16.38-6.248 22.629 0z"/><glyph glyph-name="question-circle" unicode="" d="M504 192C504 55.003 392.957-56 256-56S8 55.003 8 192c0 136.917 111.043 248 248 248s248-111.083 248-248zM262.655 358c-54.497 0-89.255-22.957-116.549-63.758-3.536-5.286-2.354-12.415 2.715-16.258l34.698-26.31c5.205-3.947 12.621-3.008 16.665 2.122 17.864 22.658 30.113 35.797 57.304 35.797 20.428 0 45.697-13.148 45.697-32.958 0-14.976-12.362-22.667-32.533-33.976C247.127 209.472 216 193.06 216 152v-4c0-6.627 5.373-12 12-12h56c6.626 0 12 5.373 12 12v1.333c0 28.462 83.185 29.648 83.185 106.667 0 58.002-60.164 102-116.53 102zM256 110c-25.365 0-46-20.635-46-46 0-25.364 20.635-46 46-46s46 20.636 46 46c0 25.365-20.635 46-46 46z"/><glyph glyph-name="info-circle" unicode="" d="M256 440c136.957 0 248-111.083 248-248C504 55.003 392.957-56 256-56S8 55.003 8 192c0 136.917 111.043 248 248 248zm0-110c-23.196 0-42-18.804-42-42s18.804-42 42-42 42 18.804 42 42-18.804 42-42 42zm56-254v24c0 6.627-5.373 12-12 12h-12v100c0 6.627-5.373 12-12 12h-64c-6.627 0-12-5.373-12-12v-24c0-6.627 5.373-12 12-12h12v-64h-12c-6.627 0-12-5.373-12-12V76c0-6.627 5.373-12 12-12h88c6.627 0 12 5.373 12 12z"/><glyph glyph-name="crosshairs" unicode="" d="M500 224c6.627 0 12-5.373 12-12v-40c0-6.627-5.373-12-12-12h-30.364C455.724 66.325 381.675-7.724 288-21.636V-52c0-6.627-5.373-12-12-12h-40c-6.627 0-12 5.373-12 12v30.364C130.325-7.724 56.276 66.324 42.364 160H11.999c-6.627 0-12 5.373-12 12v40c0 6.627 5.373 12 12 12h30.365C56.276 317.675 130.324 391.724 224 405.636V436c0 6.627 5.373 12 12 12h40c6.627 0 12-5.373 12-12v-30.364c93.674-13.912 167.724-87.96 181.636-181.636H500zM288 43.366C346.243 55.783 392.232 101.826 404.634 160H364c-6.627 0-12 5.373-12 12v40c0 6.627 5.373 12 12 12h40.634C392.217 282.243 346.174 328.232 288 340.634V300c0-6.627-5.373-12-12-12h-40c-6.627 0-12 5.373-12 12v40.634C165.757 328.217 119.768 282.174 107.366 224H148c6.627 0 12-5.373 12-12v-40c0-6.627-5.373-12-12-12h-40.634C119.783 101.757 165.826 55.768 224 43.366V84c0 6.627 5.373 12 12 12h40c6.627 0 12-5.373 12-12V43.366zM288 192c0-17.673-14.327-32-32-32s-32 14.327-32 32 14.327 32 32 32 32-14.327 32-32z"/><glyph glyph-name="ban" unicode="" d="M256 440c136.967 0 248-111.034 248-248S392.966-56 256-56 8 55.033 8 192s111.034 248 248 248zm130.108-117.892c-65.412 65.41-165.435 70.031-235.639 20.676L406.784 86.47c49.323 70.156 44.77 170.189-20.677 235.638zM125.892 61.892C191.304-3.52 291.328-8.14 361.531 41.216L105.216 297.529c-49.323-70.156-44.77-170.19 20.677-235.638z"/><glyph glyph-name="arrow-left" unicode="" horiz-adv-x="448" d="M257.5 2.9l-22.2-22.2c-9.4-9.4-24.6-9.4-33.9 0L7 175c-9.4 9.4-9.4 24.6 0 33.9l194.4 194.4c9.4 9.4 24.6 9.4 33.9 0l22.2-22.2c9.5-9.5 9.3-25-.4-34.3L136.6 232H424c13.3 0 24-10.7 24-24v-32c0-13.3-10.7-24-24-24H136.6L257.1 37.2c9.8-9.3 10-24.8.4-34.3z"/><glyph glyph-name="arrow-right" unicode="" horiz-adv-x="448" d="M190.5 381.1l22.2 22.2c9.4 9.4 24.6 9.4 33.9 0L441 209c9.4-9.4 9.4-24.6 0-33.9L246.6-19.3c-9.4-9.4-24.6-9.4-33.9 0L190.5 2.902c-9.5 9.5-9.3 25 .4 34.3L311.4 152H24c-13.3 0-24 10.7-24 24v32c0 13.3 10.7 24 24 24h287.4L190.9 346.8c-9.8 9.3-10 24.8-.4 34.3z"/><glyph glyph-name="arrow-up" unicode="" horiz-adv-x="448" d="M34.9 158.5l-22.2 22.2c-9.4 9.4-9.4 24.6 0 33.9L207 409c9.4 9.4 24.6 9.4 33.9 0l194.3-194.3c9.4-9.4 9.4-24.601 0-33.9L413 158.598c-9.5-9.5-25-9.3-34.3.4L264 279.4V-8c0-13.3-10.7-24-24-24h-32c-13.3 0-24 10.7-24 24v287.4L69.2 158.9c-9.3-9.8-24.8-10-34.3-.4z"/><glyph glyph-name="arrow-down" unicode="" horiz-adv-x="448" d="M413.1 225.5l22.2-22.2c9.4-9.4 9.4-24.6 0-33.9L241-25c-9.4-9.4-24.6-9.4-33.9 0L12.7 169.4c-9.4 9.4-9.4 24.6 0 33.9l22.201 22.2c9.5 9.5 25 9.3 34.3-.4L184 104.6V392c0 13.3 10.7 24 24 24h32c13.3 0 24-10.7 24-24V104.6l114.8 120.5c9.3 9.8 24.8 10 34.3.4z"/><glyph glyph-name="share" unicode="" d="M503.691 258.164c11.086-9.575 11.07-26.766 0-36.328l-176.005-152C312.299 56.546 287.999 67.3 287.999 88v87.915c-155.083-2.231-221.934-40.73-176.59-185.742 5.035-16.098-14.423-28.561-28.077-18.63C39.58 3.364 0 64.232 0 125.673 0 277.9 127.371 310.093 288 311.931v80.054c0 20.668 24.282 31.469 39.687 18.164z"/><glyph glyph-name="expand" unicode="" horiz-adv-x="448" d="M0 268v124c0 13.3 10.7 24 24 24h124c6.6 0 12-5.4 12-12v-40c0-6.6-5.4-12-12-12H64v-84c0-6.6-5.4-12-12-12H12c-6.6 0-12 5.4-12 12zm288 136c0 6.6 5.4 12 12 12h124c13.3 0 24-10.7 24-24V268c0-6.6-5.4-12-12-12h-40c-6.6 0-12 5.4-12 12v84h-84c-6.6 0-12 5.4-12 12v40zm148-276c6.6 0 12-5.4 12-12V-8c0-13.3-10.7-24-24-24H300c-6.6 0-12 5.4-12 12v40c0 6.6 5.4 12 12 12h84v84c0 6.6 5.4 12 12 12h40zM160-20c0-6.6-5.4-12-12-12H24C10.7-32 0-21.3 0-8v124c0 6.6 5.4 12 12 12h40c6.6 0 12-5.4 12-12V32h84c6.6 0 12-5.4 12-12v-40z"/><glyph glyph-name="compress" unicode="" horiz-adv-x="448" d="M436 256H312c-13.3 0-24 10.7-24 24v124c0 6.6 5.4 12 12 12h40c6.6 0 12-5.4 12-12v-84h84c6.6 0 12-5.4 12-12v-40c0-6.6-5.4-12-12-12zm-276 24c0-13.3-10.7-24-24-24H12c-6.6 0-12 5.4-12 12v40c0 6.6 5.4 12 12 12h84v84c0 6.6 5.4 12 12 12h40c6.6 0 12-5.4 12-12V280zm0-300c0-6.6-5.4-12-12-12h-40c-6.6 0-12 5.4-12 12v84H12C5.4 64 0 69.4 0 76v40c0 6.6 5.4 12 12 12h124c13.3 0 24-10.7 24-24V-20zm192 0c0-6.6-5.4-12-12-12h-40c-6.6 0-12 5.4-12 12v124c0 13.3 10.7 24 24 24h124c6.6 0 12-5.4 12-12V76c0-6.6-5.4-12-12-12h-84v-84z"/><glyph glyph-name="plus" unicode="" horiz-adv-x="448" d="M416 240c17.67 0 32-14.33 32-32v-32c0-17.67-14.33-32-32-32H272V0c0-17.67-14.33-32-32-32h-32c-17.67 0-32 14.33-32 32v144H32c-17.67 0-32 14.33-32 32v32c0 17.67 14.33 32 32 32h144v144c0 17.67 14.33 32 32 32h32c17.67 0 32-14.33 32-32V240h144z"/><glyph glyph-name="minus" unicode="" horiz-adv-x="448" d="M416 240c17.67 0 32-14.33 32-32v-32c0-17.67-14.33-32-32-32H32c-17.67 0-32 14.33-32 32v32c0 17.67 14.33 32 32 32h384z"/><glyph glyph-name="asterisk" unicode="" d="M478.21 113.907c11.795-6.478 15.96-21.383 9.232-33.036l-19.48-33.741c-6.728-11.654-21.72-15.5-33.227-8.523L296 122.717l3.476-162.203C299.764-52.94 288.936-64 275.482-64H236.52c-13.455 0-24.282 11.06-23.994 24.514L216 122.718 77.265 38.606C65.76 31.63 50.766 35.476 44.04 47.13L24.559 80.87c-6.73 11.653-2.563 26.56 9.232 33.037L176 192 33.79 270.092c-11.794 6.477-15.96 21.384-9.233 33.037l19.48 33.741c6.728 11.653 21.722 15.499 33.227 8.522L216 261.282l-3.473 162.204C212.237 436.94 223.065 448 236.52 448h38.96c13.457 0 24.283-11.06 23.995-24.514L296 261.282l138.735 84.111c11.507 6.977 26.5 3.131 33.227-8.522l19.48-33.741c6.729-11.654 2.563-26.56-9.232-33.037L336 192z"/><glyph glyph-name="exclamation-circle" unicode="" d="M504 192C504 55.003 392.957-56 256-56S8 55.003 8 192c0 136.917 111.043 248 248 248s248-111.083 248-248zm-248-50c-25.405 0-46-20.595-46-46s20.595-46 46-46 46 20.595 46 46-20.595 46-46 46zm-43.673 165.346l7.418-136c.347-6.363 5.608-11.346 11.981-11.346h48.547c6.373 0 11.635 4.983 11.982 11.346l7.418 136c.375 6.874-5.098 12.654-11.982 12.654h-63.384c-6.883 0-12.355-5.78-11.98-12.654z"/><glyph glyph-name="gift" unicode="" d="M32 0v128h192V-32H64C46.3-32 32-17.7 32 0zm256-32v160h192V0c0-17.7-14.3-32-32-32H288zm192 320c17.7 0 32-14.3 32-32v-80c0-8.8-7.2-16-16-16H16c-8.8 0-16 7.2-16 16v80c0 17.7 14.3 32 32 32h44.1C69.8 300.1 66 313.5 66 328c0 48.5 39.5 88 88 88 41.6 0 68.5-21.3 103-68.3 34.5 47 61.4 68.3 103 68.3 48.5 0 88-39.5 88-88 0-14.5-3.9-27.9-10.1-40H480zm-326.1 0H240c-51.5 76.7-66.2 80-86.1 80-22.1 0-40-17.9-40-40s17.9-40 40-40zm206.1 0c22.1 0 40 17.9 40 40s-17.9 40-40 40c-20.4 0-34.7-3.5-86.1-80H360z"/><glyph glyph-name="leaf" unicode="" horiz-adv-x="576" d="M546.2 438.3c19-42.4 29.8-94.4 29.8-144.6 0-172.4-110.5-313.2-267.5-324.601-80.9-8.6-142.5 33.3-174.9 77.2-51-42.7-70.4-87-71.9-90.6-6.8-16.2-25.4-24.1-41.8-17.3C3.6-54.9-4.2-36.3 2.4-20 26 37.9 132.6 192 384 192c8.8 0 16 7.2 16 16s-7.2 16-16 16c-130.6 0-222.7-38.8-286.5-84.5-.7 6.8-1.5 13.5-1.5 20.5 0 106 86 192 192 192h80c63.401 0 118.9 33.6 149.9 87.5 6.7 11.8 22.7 11.3 28.3-1.2z"/><glyph glyph-name="fire" unicode="" horiz-adv-x="384" d="M216 424.14C216 321 384 298.29 384 128c0-105.87-86.13-192-192-192S0 22.13 0 128c0 58.67 27.8 106.84 54.57 134.96 14.96 15.73 41.43 5.2 41.43-16.5v-85.51c0-35.17 27.98-64.49 63.15-64.94C194.89 95.54 224 124.37 224 160c0 88-176 96.15-52.15 277.18 13.5 19.73 44.15 10.76 44.15-13.04z"/><glyph glyph-name="eye" unicode="" horiz-adv-x="576" d="M572.52 206.6c1.92-3.799 3.48-10.338 3.48-14.595s-1.56-10.796-3.48-14.594C518.32 71.64 410.93 0 288 0S57.71 71.59 3.48 177.4C1.56 181.199 0 187.739 0 191.995s1.56 10.796 3.48 14.595C57.68 312.361 165.07 384 288 384s230.29-71.59 284.52-177.4zM288 48h.07C367.52 48 432 112.48 432 191.93v.07c0 79.489-64.511 144-144 144s-144-64.51-144-144S208.512 48 288 48zm0 240h.226c52.87 0 95.78-42.91 95.78-95.78 0-52.87-42.91-95.78-95.78-95.78-52.872 0-95.78 42.91-95.78 95.78 0 7.049 1.497 18.288 3.344 25.09 6.983-5.14 19.69-9.31 28.36-9.31 26.414 0 47.85 21.437 47.85 47.85 0 8.67-4.17 21.377-9.31 28.36 6.844 1.992 18.183 3.69 25.31 3.79z"/><glyph glyph-name="eye-slash" unicode="" horiz-adv-x="640" d="M320 48c7.241.067 18.89 1.236 26 2.61l51.89-40.15C372.87 4 346.91 0 320 0 197.07 0 89.71 71.59 35.48 177.4c-1.92 3.799-3.48 10.338-3.48 14.595s1.56 10.796 3.48 14.594c10.24 20 22.93 38.29 36.72 55.59l104.899-81.07c5.65-74.4 67.05-133.11 142.9-133.11zm313.82-58.1c3.413-2.652 6.184-8.312 6.184-12.635 0-3.028-1.507-7.424-3.365-9.815L617-57.82c-2.652-3.412-8.31-6.183-12.633-6.183-3.031 0-7.434 1.512-9.826 3.373L6.18 394.1c-3.41 2.652-6.178 8.31-6.178 12.63 0 3.03 1.509 7.428 3.368 9.82L23 441.82c2.652 3.412 8.312 6.183 12.634 6.183 3.031 0 7.433-1.512 9.826-3.374l127.22-98.33C210.692 367.057 276.691 383.947 320 384c122.93 0 230.29-71.59 284.52-177.4 1.921-3.798 3.48-10.337 3.48-14.594s-1.559-10.796-3.48-14.595c-16.767-32.676-53.166-78.403-81.25-102.07zm-183.72 142c8.61 18.32 13.9 38.47 13.9 60.1v.08C464 271.523 399.524 336 320.08 336H320c-28.47-.022-69.304-14.855-91.15-33.11L302.46 246c.727 2.714 1.416 7.193 1.54 10-.015 8.629-4.186 21.266-9.31 28.21 7.18 2.096 19.079 3.798 26.558 3.798 52.308 0 94.76-42.453 94.76-94.76 0-.345-.003-.904-.008-1.248-.112-8.435-2.442-21.75-5.2-29.72z"/><glyph glyph-name="exclamation-triangle" unicode="" horiz-adv-x="576" d="M569.517 7.987C587.975-24.007 564.807-64 527.941-64H48.054c-36.937 0-60 40.055-41.577 71.987l239.946 416.027c18.467 32.01 64.72 31.951 83.154 0zM288 94c-25.405 0-46-20.595-46-46s20.595-46 46-46 46 20.595 46 46-20.595 46-46 46zm-43.673 165.346l7.418-136c.347-6.363 5.608-11.346 11.981-11.346h48.547c6.373 0 11.635 4.983 11.982 11.346l7.418 136c.375 6.874-5.098 12.654-11.982 12.654h-63.384c-6.883 0-12.355-5.78-11.98-12.654z"/><glyph glyph-name="plane" unicode="" horiz-adv-x="576" d="M480 256c35.35 0 96-28.65 96-64s-60.65-64-96-64H365.71L260.6-55.94A16.01 16.01 0 00246.71-64h-65.5c-10.63 0-18.3 10.18-15.38 20.4L214.86 128H112L68.8 70.402a15.988 15.988 0 00-12.8-6.4H16.01C5.6 64-2.04 73.78.492 83.88L32.001 192 .49 300.12C-2.04 310.22 5.6 320 16.01 320H56c5.03 0 9.78-2.37 12.8-6.4L112 256h102.86l-49.03 171.61c-2.92 10.22 4.75 20.39 15.38 20.39h65.5c5.126 0 11.353-3.612 13.9-8.06L365.71 256H480z"/><glyph glyph-name="calendar-alt" unicode="" horiz-adv-x="448" d="M0-16v272h448V-16c0-26.5-21.5-48-48-48H48C21.5-64 0-42.5 0-16zm320 196v-40c0-6.6 5.4-12 12-12h40c6.6 0 12 5.4 12 12v40c0 6.6-5.4 12-12 12h-40c-6.6 0-12-5.4-12-12zm0-128V12c0-6.6 5.4-12 12-12h40c6.6 0 12 5.4 12 12v40c0 6.6-5.4 12-12 12h-40c-6.6 0-12-5.4-12-12zM192 180v-40c0-6.6 5.4-12 12-12h40c6.6 0 12 5.4 12 12v40c0 6.6-5.4 12-12 12h-40c-6.6 0-12-5.4-12-12zm0-128V12c0-6.6 5.4-12 12-12h40c6.6 0 12 5.4 12 12v40c0 6.6-5.4 12-12 12h-40c-6.6 0-12-5.4-12-12zM64 180v-40c0-6.6 5.4-12 12-12h40c6.6 0 12 5.4 12 12v40c0 6.6-5.4 12-12 12H76c-6.6 0-12-5.4-12-12zm0-128V12c0-6.6 5.4-12 12-12h40c6.6 0 12 5.4 12 12v40c0 6.6-5.4 12-12 12H76c-6.6 0-12-5.4-12-12zm336 332c26.5 0 48-21.5 48-48v-48H0v48c0 26.5 21.5 48 48 48h48v48c0 8.8 7.2 16 16 16h32c8.8 0 16-7.2 16-16v-48h128v48c0 8.8 7.2 16 16 16h32c8.8 0 16-7.2 16-16v-48h48z"/><glyph glyph-name="random" unicode="" d="M504.971 88.97c9.373-9.372 9.373-24.568 0-33.94l-80-79.984c-15.01-15.01-40.97-4.49-40.97 16.97V32h-58.786c-2.878 0-6.808 1.708-8.772 3.812l-70.557 75.596 53.333 57.143L352 112h32v39.981c0 21.438 25.944 31.998 40.97 16.971zM12 272c-6.627 0-12 5.373-12 12v56c0 6.627 5.373 12 12 12h110.786c2.878 0 6.808-1.708 8.771-3.812l70.557-75.596-53.333-57.143L96 272H12zm372 0h-32L131.558 35.812A12.003 12.003 0 00122.786 32H12C5.374 32 0 37.374 0 44v56c0 6.627 5.373 12 12 12h84l220.442 236.188c1.963 2.104 5.894 3.812 8.772 3.812H384v39.981c0 21.437 25.944 31.998 40.97 16.97l80-79.981c9.374-9.372 9.374-24.568 0-33.94l-80-79.985c-15.009-15.009-40.97-4.49-40.97 16.97V272z"/><glyph glyph-name="comment" unicode="" d="M256 416c141.4 0 256-93.1 256-208S397.4 0 256 0c-38.4 0-74.7 7.1-107.4 19.4C124-.2 74.3-32 8-32c-3.2 0-6 1.8-7.3 4.8s-.7 6.4 1.5 8.7c.5.5 42.3 45.4 54.8 95.8C21.4 113 0 158.4 0 208c0 114.9 114.6 208 256 208z"/><glyph glyph-name="magnet" unicode="" d="M164.07 299.9H12c-6.624 0-12 5.376-12 12v80c0 19.872 16.128 36 36 36h104c19.872 0 36-16.128 36-36v-80l.001-.11c0-6.564-5.327-11.89-11.89-11.89h-.04zm347.93 12c0-6.563-5.327-11.901-11.89-11.901H348c-6.624 0-12 5.377-12 12v80c0 19.873 16.128 36 36 36h104c19.872 0 36-16.127 36-36V311.9zm-164-44h151.851c6.624 0 12-5.376 12-12l-.001-.1c-.2-20.2-.6-40.4 0-53.2 0-150.7-134.42-246.7-255-246.7S.1 51.9.1 202.5c.6 13 .1 31.9 0 53.3v.1c0 6.625 5.376 12 12 12H164c6.624 0 12-5.375 12-12v-52c0-127.9 160-128.1 160 0v52c0 6.625 5.376 12 12 12z"/><glyph glyph-name="chevron-up" unicode="" horiz-adv-x="448" d="M240.971 317.476l194.344-194.343c9.372-9.373 9.372-24.568 0-33.94l-22.667-22.667c-9.357-9.358-24.523-9.375-33.901-.04L224 220.506 69.256 66.485c-9.38-9.335-24.544-9.318-33.902.04L12.687 89.192c-9.372 9.373-9.372 24.568 0 33.94l194.344 194.343c9.372 9.373 24.568 9.373 33.94.001z"/><glyph glyph-name="chevron-down" unicode="" horiz-adv-x="448" d="M207.029 66.524L12.685 260.868c-9.372 9.373-9.372 24.569 0 33.94l22.667 22.668c9.357 9.357 24.523 9.375 33.901.04L224 163.495l154.745 154.02c9.38 9.336 24.544 9.318 33.902-.04l22.667-22.666c9.372-9.373 9.372-24.569 0-33.94L240.97 66.523c-9.373-9.372-24.569-9.372-33.942 0z"/><glyph glyph-name="retweet" unicode="" horiz-adv-x="640" d="M629.657 104.402L528.97 3.715c-9.373-9.372-24.567-9.372-33.94 0L394.342 104.402c-9.373 9.373-9.373 24.568 0 33.94l10.823 10.824c9.561 9.561 25.133 9.34 34.419-.493l40.415-42.792V288h-187.55c-5.487 0-13.09 3.15-16.97 7.03l-16 16c-15.12 15.12-4.411 40.97 16.97 40.97H520c13.255 0 24-10.745 24-24V105.881l40.416 42.792c9.285 9.831 24.856 10.054 34.419.493l10.823-10.824c9.372-9.372 9.372-24.568-.001-33.94zM364.519 88.971l16.001-16C395.64 57.85 384.931 32 363.55 32H120c-13.255 0-24 10.745-24 24v222.119l-40.416-42.793c-9.286-9.831-24.857-10.053-34.419-.491l-10.822 10.822c-9.373 9.372-9.373 24.567 0 33.94l100.688 100.687c9.372 9.374 24.567 9.374 33.94 0l100.687-100.686c9.374-9.372 9.374-24.567 0-33.94l-10.822-10.822c-9.562-9.563-25.133-9.34-34.419.491l-40.416 42.792V96H347.55c5.488 0 13.09-3.15 16.97-7.03z"/><glyph glyph-name="shopping-cart" unicode="" horiz-adv-x="576" d="M528.12 146.681a24 24 0 00-23.403-18.68H211.572l6.545-32h268.418c15.4 0 26.815-14.301 23.403-29.32l-5.518-24.275C523.112 33.332 536 14.172 536-8c0-30.927-25.073-56-56-56s-56 25.073-56 56c0 15.674 6.447 29.835 16.823 40H231.176C241.553 21.835 248 7.674 248-8c0-30.927-25.072-56-56-56s-56 25.073-56 56c0 20.779 11.325 38.9 28.13 48.566L93.884 384H24c-13.255 0-24 10.745-24 24v16c0 13.255 10.745 24 24 24h102.529c11.4 0 21.228-8.022 23.513-19.19l9.166-44.81H551.99c15.4 0 26.815-14.301 23.402-29.32z"/><glyph glyph-name="folder" unicode="" d="M464 320c26.51 0 48-21.49 48-48V48c0-26.51-21.49-48-48-48H48C21.49 0 0 21.49 0 48v288c0 26.51 21.49 48 48 48h160l64-64h192z"/><glyph glyph-name="folder-open" unicode="" horiz-adv-x="576" d="M572.694 155.907L500.269 31.752C490.046 14.225 465.281 0 444.99 0H45.025C26.502 0 14.96 20.093 24.294 36.093l72.423 124.155C106.942 177.775 131.707 192 152 192h399.964c18.523 0 30.064-20.093 20.73-36.093zM152 224c-34.01 0-65.786-18.25-82.923-47.628L0 57.954V336c0 26.51 21.49 48 48 48h160l64-64h160c26.51 0 48-21.49 48-48v-48H152z"/><glyph glyph-name="chart-bar" unicode="" d="M332.8 128c-6.4 0-12.8 6.4-12.8 12.8v134.4c0 6.4 6.4 12.8 12.8 12.8h38.4c6.4 0 12.8-6.4 12.8-12.8V140.8c0-6.4-6.4-12.8-12.8-12.8h-38.4zm96 0c-6.4 0-12.8 6.4-12.8 12.8v230.4c0 6.4 6.4 12.8 12.8 12.8h38.4c6.4 0 12.8-6.4 12.8-12.8V140.8c0-6.4-6.4-12.8-12.8-12.8h-38.4zm-288 0c-6.4 0-12.8 6.4-12.8 12.8v70.4c0 6.4 6.4 12.8 12.8 12.8h38.4c6.4 0 12.8-6.4 12.8-12.8v-70.4c0-6.4-6.4-12.8-12.8-12.8h-38.4zm96 0c-6.4 0-12.8 6.4-12.8 12.8v198.4c0 6.4 6.4 12.8 12.8 12.8h38.4c6.4 0 12.8-6.4 12.8-12.8V140.8c0-6.4-6.4-12.8-12.8-12.8h-38.4zM496 64c8.84 0 16-7.16 16-16V16c0-8.84-7.16-16-16-16H32C14.33 0 0 14.33 0 32v336c0 8.84 7.16 16 16 16h32c8.84 0 16-7.16 16-16V64h432z"/><glyph glyph-name="camera-retro" unicode="" d="M48 416h416c26.5 0 48-21.5 48-48V16c0-26.5-21.5-48-48-48H48C21.5-32 0-10.5 0 16v352c0 26.5 21.5 48 48 48zm0-32c-8.8 0-16-7.2-16-16v-10c0-3.3 2.7-6 6-6h116c3.3 0 6 2.7 6 6v20c0 3.3-2.7 6-6 6H48zm426-96c3.3 0 6 2.7 6 6v74c0 8.8-7.2 16-16 16H211.2c-2 0-3.9-1-5-2.7L176 336H38c-3.3 0-6-2.7-6-6v-36c0-3.3 2.7-6 6-6h436zM256 24c66.2 0 120 53.8 120 120s-53.8 120-120 120-120-53.8-120-120S189.8 24 256 24zm0 208c48.5 0 88-39.5 88-88s-39.5-88-88-88-88 39.5-88 88 39.5 88 88 88zm-48-104c8.8 0 16 7.2 16 16 0 17.6 14.4 32 32 32 8.8 0 16 7.2 16 16s-7.2 16-16 16c-35.3 0-64-28.7-64-64 0-8.8 7.2-16 16-16z"/><glyph glyph-name="key" unicode="" d="M512 271.999C512 174.797 433.202 96 336 96c-11.22 0-22.19 1.062-32.827 3.07L279.16 72.054C275.21 67.608 267.173 64 261.224 64H224V24c0-13.255-10.745-24-24-24h-40v-40c0-13.255-10.745-24-24-24H24C10.745-64 0-53.255 0-40v78.06c0 6.365 2.53 12.47 7.03 16.971l161.8 161.801C163.108 234.186 160 252.729 160 272c0 97.202 78.796 176 175.998 176C433.49 448.001 512 369.49 512 272zM336 320c0-26.51 21.49-48 48-48s48 21.49 48 48-21.49 48-48 48-48-21.49-48-48z"/><glyph glyph-name="cogs" unicode="" horiz-adv-x="640" d="M512.1 257l-8.2-14.3c-3-5.3-9.4-7.5-15.1-5.4-11.8 4.4-22.6 10.7-32.1 18.6-4.6 3.8-5.8 10.5-2.8 15.7l8.2 14.3c-6.9 8-12.3 17.3-15.9 27.4h-16.5c-6 0-11.2 4.3-12.2 10.3-2 12-2.1 24.6 0 37.1 1 6 6.2 10.4 12.2 10.4h16.5c3.6 10.1 9 19.4 15.9 27.4l-8.2 14.3c-3 5.2-1.9 11.9 2.8 15.7 9.5 7.9 20.4 14.2 32.1 18.6 5.7 2.1 12.1-.1 15.1-5.4l8.2-14.3c10.5 1.9 21.2 1.9 31.7 0l8.2 14.3c3 5.3 9.4 7.5 15.1 5.4 11.8-4.4 22.6-10.7 32.1-18.6 4.6-3.8 5.8-10.5 2.8-15.7l-8.2-14.3c6.9-8 12.3-17.3 15.9-27.4h16.5c6 0 11.2-4.3 12.2-10.3 2-12 2.1-24.6 0-37.1-1-6-6.2-10.4-12.2-10.4h-16.5c-3.6-10.1-9-19.4-15.9-27.4l8.2-14.3c3-5.2 1.9-11.9-2.8-15.7-9.5-7.9-20.4-14.2-32.1-18.6-5.7-2.1-12.1.1-15.1 5.4l-8.2 14.3c-10.4-1.9-21.2-1.9-31.7 0zm-10.5 58.8c38.5-29.6 82.4 14.3 52.8 52.8-38.5 29.7-82.4-14.3-52.8-52.8zM386.3 161.9l33.7-16.8c10.1-5.8 14.5-18.1 10.5-29.1-8.9-24.2-26.4-46.4-42.6-65.8-7.4-8.9-20.2-11.1-30.3-5.3l-29.1 16.8c-16-13.7-34.6-24.6-54.9-31.7V-3.6c0-11.6-8.3-21.6-19.7-23.6-24.6-4.2-50.4-4.4-75.9 0-11.5 2-20 11.9-20 23.6V30c-20.3 7.2-38.9 18-54.9 31.7L74 45c-10-5.8-22.9-3.6-30.3 5.3C27.5 69.7 10.4 91.9 1.5 116c-4 10.9.4 23.2 10.5 29.1l33.3 16.8c-3.9 20.9-3.9 42.4 0 63.4L12 242.2c-10.1 5.8-14.6 18.1-10.5 29 8.9 24.2 26 46.4 42.2 65.8 7.4 8.9 20.2 11.1 30.3 5.3l29.1-16.8c16 13.7 34.6 24.6 54.9 31.7v33.7c0 11.5 8.2 21.5 19.6 23.5 24.6 4.2 50.5 4.4 76 .1 11.5-2 20-11.9 20-23.6v-33.6c20.3-7.2 38.9-18 54.9-31.7l29.1 16.8c10 5.8 22.9 3.6 30.3-5.3 16.2-19.4 33.2-41.6 42.1-65.8 4-10.9.1-23.2-10-29.1l-33.7-16.8c3.9-21 3.9-42.5 0-63.5zm-117.6-21.1c59.2 77-28.7 164.9-105.7 105.7-59.2-77 28.7-164.9 105.7-105.7zM512.1-41.9l-8.2-14.3c-3-5.3-9.4-7.5-15.1-5.4-11.8 4.4-22.6 10.7-32.1 18.6-4.6 3.8-5.8 10.5-2.8 15.7l8.2 14.3c-6.9 8-12.3 17.3-15.9 27.4h-16.5c-6 0-11.2 4.3-12.2 10.3-2 12-2.1 24.6 0 37.1 1 6 6.2 10.4 12.2 10.4h16.5c3.6 10.1 9 19.4 15.9 27.4l-8.2 14.3c-3 5.2-1.9 11.9 2.8 15.7 9.5 7.9 20.4 14.2 32.1 18.6 5.7 2.1 12.1-.1 15.1-5.4l8.2-14.3c10.5 1.9 21.2 1.9 31.7 0l8.2 14.3c3 5.3 9.4 7.5 15.1 5.4 11.8-4.4 22.6-10.7 32.1-18.6 4.6-3.8 5.8-10.5 2.8-15.7l-8.2-14.3c6.9-8 12.3-17.3 15.9-27.4h16.5c6 0 11.2-4.3 12.2-10.3 2-12 2.1-24.6 0-37.1-1-6-6.2-10.4-12.2-10.4h-16.5c-3.6-10.1-9-19.4-15.9-27.4l8.2-14.3c3-5.2 1.9-11.9-2.8-15.7-9.5-7.9-20.4-14.2-32.1-18.6-5.7-2.1-12.1.1-15.1 5.4l-8.2 14.3c-10.4-1.9-21.2-1.9-31.7 0zM501.6 17c38.5-29.6 82.4 14.3 52.8 52.8C515.9 99.4 472 55.5 501.6 17z"/><glyph glyph-name="comments" unicode="" horiz-adv-x="576" d="M416 256c0-88.4-93.1-160-208-160-41 0-79.1 9.3-111.3 25C74.9 108.3 44.6 96 8 96c-3.2 0-6 1.8-7.3 4.8s-.7 6.4 1.5 8.7c.3.3 22.4 24.3 35.8 54.5-23.9 26.1-38 57.7-38 92 0 88.4 93.1 160 208 160s208-71.6 208-160zM538 36c13.4-30.3 35.5-54.2 35.8-54.5 2.2-2.4 2.8-5.8 1.5-8.7-1.2-2.9-4.1-4.8-7.3-4.8-36.6 0-66.9 12.3-88.7 25C447.1-22.8 409-32 368-32c-86.2 0-160.2 40.4-191.7 97.9 10.4-1.1 20.9-1.9 31.7-1.9 132.3 0 240 86.1 240 192 0 6.8-.4 13.5-1.3 20.1C522.5 252.2 576 194.9 576 128c0-34.3-14.1-66-38-92z"/><glyph glyph-name="star-half" unicode="" horiz-adv-x="576" d="M288 448V8.4L157.3-60.2c-23.4-12.3-50.9 7.6-46.4 33.7l25 145.5L30.2 222c-19 18.5-8.5 50.8 17.7 54.6L194 297.8l65.3 132.4c5.901 11.899 17.3 17.8 28.7 17.8z"/><glyph glyph-name="thumbtack" unicode="" horiz-adv-x="384" d="M298.028 233.733C346.018 211.419 384 171.183 384.001 120c0-13.255-10.745-24-24-24H224V-8.007c0-1.043-.38-2.646-.845-3.578l-24-48c-2.947-5.893-11.37-5.882-14.312 0l-24 48A8 8 0 00160-8.007V96H24c-13.255 0-24 10.745-24 24 0 50.74 37.465 91.18 85.971 113.733L98.207 352H56c-13.255 0-24 10.745-24 24v48c0 13.255 10.745 24 24 24h272c13.255 0 24-10.745 24-24v-48c0-13.255-10.745-24-24-24h-42.207z"/><glyph glyph-name="trophy" unicode="" horiz-adv-x="576" d="M552 384c13.3 0 24-10.7 24-24v-56c0-35.7-22.6-72.4-61.9-100.7-31.4-22.7-69.7-37.1-110-41.7C372.7 109.5 336 88 336 88V16h48c35.3 0 64-20.7 64-56v-12c0-6.6-5.4-12-12-12H140c-6.6 0-12 5.4-12 12v12c0 35.3 28.7 56 64 56h48v72s-36.7 21.5-68.1 73.6c-40.2 4.6-78.5 19-110 41.7C22.5 231.6 0 268.3 0 304v56c0 13.3 10.7 24 24 24h104v40c0 13.3 10.7 24 24 24h272c13.3 0 24-10.7 24-24v-40h104zM99.3 255.2c12.5-9 26.6-16.2 41.7-21.4-7 25-11.8 53.6-12.8 86.2H64v-16c0-11.6 10.9-31.2 35.3-48.8zM512 304v16h-64.3c-1-32.6-5.8-61.2-12.8-86.2 15.1 5.2 29.3 12.4 41.8 21.4 17.6 12.7 35.3 32.7 35.3 48.8z"/><glyph glyph-name="upload" unicode="" d="M296 64h-80c-13.3 0-24 10.7-24 24v168h-87.7c-17.8 0-26.7 21.5-14.1 34.1l152.1 152.2c7.5 7.5 19.8 7.5 27.3 0l152.2-152.2c12.6-12.6 3.7-34.1-14.1-34.1H320V88c0-13.3-10.7-24-24-24zm216 8V-40c0-13.3-10.7-24-24-24H24C10.7-64 0-53.3 0-40V72c0 13.3 10.7 24 24 24h136v-8c0-30.9 25.1-56 56-56h80c30.9 0 56 25.1 56 56v8h136c13.3 0 24-10.7 24-24zM388-16c0 11-9 20-20 20s-20-9-20-20 9-20 20-20 20 9 20 20zm64 0c0 11-9 20-20 20s-20-9-20-20 9-20 20-20 20 9 20 20z"/><glyph glyph-name="lemon" unicode="" d="M489.038 425.037c23.094-23.094 28.892-54.39 16.833-75.093-34.312-58.904 53.076-181.249-86.746-321.07S156.958-23.56 98.057-57.87c-20.703-12.059-52-6.263-75.095 16.832C-.13-17.944-5.929 13.352 6.13 34.055c34.313 58.904-53.078 181.247 86.745 321.07s262.167 52.433 321.073 86.746c20.701 12.058 51.997 6.259 75.091-16.834zm-245.157-72.559c8.572 2.144 13.783 10.83 11.642 19.402-2.143 8.574-10.828 13.786-19.404 11.643C166.317 366.07 81.901 281.573 64.476 211.88c-2.141-8.573 3.07-17.259 11.643-19.403a16.107 16.107 0 013.892-.48c7.17 0 13.695 4.853 15.512 12.123 14.55 58.203 90.17 133.811 148.357 148.357z"/><glyph glyph-name="phone" unicode="" d="M493.4 423.4c10.9-2.5 18.6-12.2 18.6-23.4C512 143.5 304.1-64 48-64c-11.3 0-20.9 7.8-23.4 18.6l-24 104c-2.6 11.3 3.3 22.9 14 27.6l112 48c9.8 4.2 21.2 1.4 28-6.9l49.6-60.6c78.3 36.7 141.2 100.5 177.2 177.2l-60.6 49.6c-8.3 6.7-11.1 18.2-6.9 28l48 112c4.6 10.599 16.199 16.5 27.5 13.9z"/><glyph glyph-name="phone-square" unicode="" horiz-adv-x="448" d="M400 416c26.51 0 48-21.49 48-48V16c0-26.51-21.49-48-48-48H48C21.49-32 0-10.51 0 16v352c0 26.51 21.49 48 48 48h352zM94 32c160.055 0 290 129.708 290 290 0 6.587-5.209 13.134-11.628 14.614l-65 14.998c-.919.212-2.43.384-3.373.384-5.46 0-11.637-4.073-13.787-9.09l-30-69.999c-.669-1.562-1.212-4.209-1.212-5.908 0-3.924 2.464-9.125 5.501-11.61l37.886-30.997c-22.484-47.922-61.837-87.817-110.78-110.78l-30.997 37.885C158.124 154.534 152.923 157 149 157c-1.7 0-4.346-.544-5.909-1.213l-69.998-29.999c-5.019-2.15-9.09-8.327-9.09-13.787 0-.943.171-2.454.383-3.373l14.998-65C80.944 36.873 86.967 32 94 32z"/><glyph glyph-name="unlock" unicode="" horiz-adv-x="448" d="M400 192c26.5 0 48-21.5 48-48V-16c0-26.5-21.5-48-48-48H48C21.5-64 0-42.5 0-16v160c0 26.5 21.5 48 48 48h24v102.5c0 84 67.5 153.2 151.5 153.5S376 380 376 296v-16c0-13.3-10.7-24-24-24h-32c-13.3 0-24 10.7-24 24v16c0 39.9-32.7 72.4-72.7 72-39.6-.4-71.3-33.3-71.3-72.9V192h248z"/><glyph glyph-name="credit-card" unicode="" horiz-adv-x="576" d="M0 16v176h576V16c0-26.5-21.5-48-48-48H48C21.5-32 0-10.5 0 16zm192 68V44c0-6.6 5.4-12 12-12h136c6.6 0 12 5.4 12 12v40c0 6.6-5.4 12-12 12H204c-6.6 0-12-5.4-12-12zM64 84V44c0-6.6 5.4-12 12-12h72c6.6 0 12 5.4 12 12v40c0 6.6-5.4 12-12 12H76c-6.6 0-12-5.4-12-12zm512 284v-48H0v48c0 26.5 21.5 48 48 48h480c26.5 0 48-21.5 48-48z"/><glyph glyph-name="rss" unicode="" horiz-adv-x="448" d="M128.081 32.041C128.081-3.329 99.409-32 64.04-32S0-3.328 0 32.041s28.672 64.041 64.041 64.041 64.04-28.673 64.04-64.041zm175.66-47.25c.494-9.135-6.847-16.791-15.995-16.79h-48.07c-8.413 0-15.47 6.49-16.017 14.887-7.299 112.07-96.94 201.488-208.772 208.772C6.491 192.206 0 199.262 0 207.677v48.07c0 9.147 7.657 16.488 16.791 15.994 154.765-8.364 278.596-132.351 286.95-286.95zm144.249-.288c.324-9.03-6.972-16.503-16.005-16.504h-48.068c-8.626 0-15.646 6.835-16 15.453C360.08 174.6 206.633 328.078 15.454 335.917c-8.618.355-15.453 7.374-15.453 16v48.067c0 9.035 7.472 16.33 16.502 16.006 234.962-8.435 423.094-197.667 431.488-431.487z"/><glyph glyph-name="hdd" unicode="" horiz-adv-x="576" d="M576 144V48c0-26.51-21.49-48-48-48H48C21.49 0 0 21.49 0 48v96c0 26.51 21.49 48 48 48h480c26.51 0 48-21.49 48-48zm-48 80H47.93c-8.817 0-22.574-2.762-30.707-6.165l96.528 144.791C121.617 374.425 139.509 384 153.689 384H422.31c14.181 0 32.074-9.576 39.94-21.374l96.527-144.791c-8.134 3.403-21.89 6.165-30.708 6.165H528zm-48-96c-17.673 0-32-14.327-32-32s14.327-32 32-32 32 14.327 32 32-14.327 32-32 32zm-96 0c-17.673 0-32-14.327-32-32s14.327-32 32-32 32 14.327 32 32-14.327 32-32 32z"/><glyph glyph-name="bullhorn" unicode="" horiz-adv-x="576" d="M576 208c0-23.63-12.95-44.04-32.01-55.13V0c0-9.22-7.08-32-32-32-6.193.006-15.144 3.15-19.98 7.02l-85.03 68.03C364.28 77.19 310.66 96 256 96h-28.08c-2.79-10.21-4.41-20.89-4.41-32 0-29.08 9.75-55.92 26.15-77.44 15.79-20.72.15-50.56-25.9-50.56h-74.28c-11.88 0-23.21 6.37-28.4 17.06C104.78-13.35 95.52 24.23 95.52 64c0 10.86.79 21.52 2.18 32H64c-35.35 0-64 28.65-64 64v96c0 35.35 28.65 64 64 64h192c54.66 0 108.28 18.81 150.99 52.95l85.03 68.03A31.928 31.928 0 00512 448c25.02 0 32-23.26 32-32.01V263.12c19.05-11.08 32-31.49 32-55.12zM480 66.58v282.84l-33.05-26.44C392.95 279.78 325.12 256 256 256v-96c69.12 0 136.95-23.78 190.95-66.98z"/><glyph glyph-name="certificate" unicode="" d="M458.622 192.08l45.984-45.004c13.702-12.973 7.323-36.037-10.664-40.339l-62.65-15.99 17.661-62.015c4.99-17.834-11.825-34.665-29.661-29.672l-61.994 17.668-15.984-62.671C336.976-64.097 313.49-70.1 300.99-56.611l-44.99 46-44.99-46c-12.63-13.35-35.886-7.907-40.326 10.668L154.7 16.727 92.706-.94C74.874-5.93 58.054 10.893 63.045 28.732l17.661 62.015-62.65 15.99c-17.98 4.3-24.373 27.362-10.665 40.34l45.986 45.003L7.39 237.085c-13.7 12.97-7.322 36.037 10.665 40.338l62.65 15.99-17.66 62.015c-4.99 17.834 11.824 34.665 29.66 29.67l61.996-17.667 15.983 62.671c4.279 17.903 27.696 24.02 40.326 10.67L256 394.43l44.99 46.342c12.774 13.504 36.095 7.03 40.325-10.669l15.984-62.67 61.994 17.667c17.832 4.992 34.652-11.833 29.66-29.671l-17.66-62.015 62.65-15.99c17.98-4.3 24.372-27.363 10.664-40.34z"/><glyph glyph-name="hand-point-right" unicode="" d="M512 248.348c0-23.625-20.65-43.825-44.8-43.825h-99.85c16.34-17.049 18.346-49.767-6.3-70.944 14.289-22.83 2.148-53.018-16.45-62.316C353.575 22.123 322.655 0 272 0c-2.746 0-13.276.204-16 .196C194.03.028 179.106 31.26 132.269 38.51 120.596 40.318 112 50.402 112 62.214V233.74l.002.001c.011 18.366 10.608 35.889 28.464 43.845 28.886 12.994 95.413 49.038 107.534 77.323 7.797 18.194 21.384 29.084 40 29.092 34.222.014 57.752-35.098 44.12-66.908-3.584-8.359-8.313-16.67-14.154-24.918H467.2c23.45 0 44.8-20.543 44.8-43.826zM96 248V56c0-13.255-10.745-24-24-24H24C10.745 32 0 42.745 0 56v192c0 13.255 10.745 24 24 24h48c13.255 0 24-10.745 24-24zM68 80c0 11.046-8.954 20-20 20s-20-8.954-20-20 8.954-20 20-20 20 8.954 20 20z"/><glyph glyph-name="hand-point-left" unicode="" d="M44.8 292.174h149.234c-5.841 8.248-10.57 16.559-14.153 24.918-13.633 31.81 9.897 66.922 44.119 66.908 18.616-.008 32.203-10.897 40-29.092 12.122-28.286 78.648-64.329 107.534-77.323 17.856-7.956 28.453-25.478 28.463-43.844l.002-.001V62.214c0-11.812-8.595-21.897-20.268-23.704C332.893 31.26 317.97.028 256 .196 253.276.203 242.746 0 240 0c-50.654 0-81.574 22.122-72.6 71.262-18.597 9.297-30.738 39.487-16.45 62.316-24.645 21.177-22.64 53.895-6.299 70.944H44.8c-24.15 0-44.8 20.2-44.8 43.825 0 23.283 21.35 43.826 44.8 43.826zM440 272h48c13.255 0 24-10.745 24-24V56c0-13.255-10.745-24-24-24h-48c-13.255 0-24 10.745-24 24v192c0 13.255 10.745 24 24 24zm24-212c11.046 0 20 8.954 20 20s-8.954 20-20 20-20-8.954-20-20 8.954-20 20-20z"/><glyph glyph-name="hand-point-up" unicode="" horiz-adv-x="384" d="M135.652 448c23.625 0 43.825-20.65 43.825-44.8v-99.85c17.049 16.34 49.767 18.346 70.944-6.3 22.83 14.289 53.018 2.148 62.316-16.45C361.877 289.575 384 258.655 384 208c0-2.746-.204-13.276-.196-16 .168-61.97-31.064-76.894-38.314-123.731C343.682 56.596 333.598 48 321.786 48H150.26l-.001.002c-18.366.011-35.889 10.608-43.845 28.464C93.421 105.352 57.377 171.878 29.092 184 10.898 191.797.008 205.384 0 224c-.014 34.222 35.098 57.752 66.908 44.12 8.359-3.584 16.67-8.313 24.918-14.154V403.2c0 23.45 20.543 44.8 43.826 44.8zM136 32h192c13.255 0 24-10.745 24-24v-48c0-13.255-10.745-24-24-24H136c-13.255 0-24 10.745-24 24V8c0 13.255 10.745 24 24 24zM304 4c-11.046 0-20-8.954-20-20s8.954-20 20-20 20 8.954 20 20-8.954 20-20 20z"/><glyph glyph-name="hand-point-down" unicode="" horiz-adv-x="384" d="M91.826-19.2v149.234c-8.248-5.841-16.558-10.57-24.918-14.153C35.098 102.248-.014 125.778 0 160c.008 18.616 10.898 32.203 29.092 40 28.286 12.122 64.329 78.648 77.323 107.534 7.956 17.856 25.478 28.453 43.845 28.464v.001h171.527c11.811 0 21.896-8.595 23.703-20.268 7.25-46.838 38.482-61.76 38.314-123.731-.007-2.724.196-13.254.196-16 0-50.654-22.123-81.574-71.263-72.6-9.297-18.597-39.486-30.738-62.316-16.45-21.176-24.645-53.895-22.64-70.944-6.299V-19.2c0-24.15-20.2-44.8-43.825-44.8-23.283 0-43.826 21.35-43.826 44.8zM112 376v48c0 13.255 10.745 24 24 24h192c13.255 0 24-10.745 24-24v-48c0-13.255-10.745-24-24-24H136c-13.255 0-24 10.745-24 24zm212 24c0 11.046-8.954 20-20 20s-20-8.954-20-20 8.954-20 20-20 20 8.954 20 20z"/><glyph glyph-name="arrow-circle-left" unicode="" d="M256-56C119-56 8 55 8 192s111 248 248 248 248-111 248-248S393-56 256-56zm28.9 143.6L209.4 160H392c13.3 0 24 10.7 24 24v16c0 13.3-10.7 24-24 24H209.4l75.5 72.4c9.7 9.3 9.9 24.8.4 34.3l-11 10.9c-9.4 9.4-24.6 9.4-33.9 0L107.7 209c-9.4-9.4-9.4-24.6 0-33.9L240.4 42.4c9.4-9.4 24.6-9.4 33.9 0l11 10.9c9.5 9.5 9.3 25-.4 34.3z"/><glyph glyph-name="arrow-circle-right" unicode="" d="M256 440c137 0 248-111 248-248S393-56 256-56 8 55 8 192s111 248 248 248zm-28.9-143.6l75.5-72.4H120c-13.3 0-24-10.7-24-24v-16c0-13.3 10.7-24 24-24h182.6l-75.5-72.4c-9.7-9.3-9.9-24.8-.4-34.3l11-10.9c9.4-9.4 24.6-9.4 33.9 0L404.3 175c9.4 9.4 9.4 24.6 0 33.9L271.6 341.7c-9.4 9.4-24.6 9.4-33.9 0l-11-10.9c-9.5-9.6-9.3-25.1.4-34.4z"/><glyph glyph-name="arrow-circle-up" unicode="" d="M8 192c0 137 111 248 248 248s248-111 248-248S393-56 256-56 8 55 8 192zm143.6-28.9l72.4 75.5V56c0-13.3 10.7-24 24-24h16c13.3 0 24 10.7 24 24v182.6l72.4-75.5c9.3-9.7 24.8-9.9 34.3-.4l10.9 11c9.4 9.4 9.4 24.6 0 33.9L273 340.3c-9.4 9.4-24.6 9.4-33.9 0L106.3 207.6c-9.4-9.4-9.4-24.6 0-33.9l10.9-11c9.6-9.5 25.1-9.3 34.4.4z"/><glyph glyph-name="arrow-circle-down" unicode="" d="M504 192C504 55 393-56 256-56S8 55 8 192s111 248 248 248 248-111 248-248zm-143.6 28.9L288 145.4V328c0 13.3-10.7 24-24 24h-16c-13.3 0-24-10.7-24-24V145.4l-72.4 75.5c-9.3 9.7-24.8 9.9-34.3.4l-10.9-11c-9.4-9.4-9.4-24.6 0-33.9L239 43.7c9.4-9.4 24.6-9.4 33.9 0l132.7 132.7c9.4 9.4 9.4 24.6 0 33.9l-10.9 11c-9.5 9.5-25 9.3-34.3-.4z"/><glyph glyph-name="globe" unicode="" horiz-adv-x="496" d="M336.5 288h-177c14.5 89.3 48.7 152 88.5 152s74-62.7 88.5-152zM152 192c0 22.2 1.2 43.5 3.3 64h185.3c2.1-20.5 3.3-41.8 3.3-64s-1.2-43.5-3.3-64H155.3c-2.1 20.5-3.3 41.8-3.3 64zm324.7 96h-108c-8.8 56.9-25.6 107.8-50 141.6 71.5-21.2 129.399-73.7 158-141.6zM177.2 429.6c-24.4-33.8-41.2-84.7-49.9-141.6h-108c28.5 67.9 86.5 120.4 157.9 141.6zM487.4 256c5.4-20.5 8.5-41.8 8.5-64s-3.1-43.5-8.6-64H372.7c2.099 21 3.3 42.5 3.3 64s-1.201 43-3.3 64h114.7zM120 192c0-21.5 1.2-43 3.2-64H8.6C3.2 148.5 0 169.8 0 192s3.2 43.5 8.6 64h114.7c-2.1-21-3.3-42.5-3.3-64zm39.5-96h177C322 6.7 287.8-56 248-56S174 6.7 159.5 96zM318.8-45.6c24.4 33.8 41.2 84.7 50 141.6h108c-28.6-67.9-86.6-120.4-158-141.6zM19.3 96h108c8.8-56.9 25.6-107.8 50-141.6C105.8-24.4 47.9 28.1 19.3 96z"/><glyph glyph-name="wrench" unicode="" d="M507.73 338.9c11.79-47.41-.84-99.66-37.91-136.73-39.9-39.9-97.25-50.93-147.37-34.22L109.24-45.26c-24.99-24.99-65.51-24.99-90.5 0s-24.99 65.51 0 90.5l213.39 213.39c-16.5 50.1-5.59 107.561 34.05 147.2 37.03 37.02 89.2 49.67 136.58 37.93 9.09-2.26 12.28-13.54 5.66-20.16l-74.36-74.36 11.31-67.88 67.88-11.31 74.36 74.36c6.58 6.58 17.88 3.52 20.12-5.51zM64-24c13.25 0 24 10.75 24 24 0 13.26-10.75 24-24 24S40 13.26 40 0c0-13.25 10.75-24 24-24z"/><glyph glyph-name="tasks" unicode="" d="M139.61 412.5l17-16.5c1.902-1.945 3.447-5.733 3.447-8.454 0-2.763-1.585-6.592-3.538-8.546L84.32 306.81l-15.59-15.62c-2.043-1.942-5.987-3.517-8.805-3.517-2.818 0-6.763 1.575-8.805 3.517l-47.59 47.4c-1.948 1.94-3.53 5.75-3.53 8.5s1.582 6.558 3.53 8.5l15.7 15.72c1.942 1.948 5.75 3.53 8.5 3.53s6.558-1.582 8.5-3.53l22.7-22.12 63.68 63.31c1.942 1.948 5.75 3.53 8.5 3.53s6.559-1.582 8.5-3.53zm0-159.19l16.98-17c1.896-1.932 3.434-5.697 3.434-8.404 0-2.748-1.579-6.554-3.524-8.495l-72.2-72.22-15.7-15.69c-2.042-1.942-5.984-3.517-8.8-3.517s-6.76 1.575-8.8 3.516L3.53 179C1.582 180.942 0 184.75 0 187.5s1.582 6.56 3.53 8.5l15.7 15.69c1.942 1.95 5.75 3.53 8.5 3.53s6.558-1.58 8.5-3.53l22.7-22.1 63.68 63.72c1.941 1.948 5.75 3.53 8.5 3.53s6.559-1.582 8.5-3.53zM64 80c26.496 0 48-21.504 48-48S90.496-16 64-16C37.53-16 15.41 5.5 15.41 32S37.51 80 64 80zm432-16c8.832 0 16-7.168 16-16V16c0-8.832-7.168-16-16-16H208c-8.832 0-16 7.168-16 16v32c0 8.832 7.168 16 16 16h288zm0 320c8.832 0 16-7.168 16-16v-32c0-8.832-7.168-16-16-16H208c-8.832 0-16 7.168-16 16v32c0 8.832 7.168 16 16 16h288zm0-160c8.832 0 16-7.168 16-16v-32c0-8.832-7.168-16-16-16H208c-8.832 0-16 7.168-16 16v32c0 8.832 7.168 16 16 16h288z"/><glyph glyph-name="filter" unicode="" d="M487.976 448c21.362 0 32.046-25.896 16.972-40.97L320 222.057V-39.98c0-19.512-21.98-30.71-37.763-19.66l-80 55.979A24.003 24.003 0 00192.001 16v206.059L7.059 407.029c-15.105 15.105-4.348 40.972 16.97 40.972h463.947z"/><glyph glyph-name="briefcase" unicode="" d="M320 112v48h192V16c0-25.6-22.4-48-48-48H48C22.4-32 0-9.6 0 16v144h192v-48c0-8.84 7.16-16 16-16h96c8.84 0 16 7.16 16 16zm144 208c25.6 0 48-22.4 48-48v-80H0v80c0 25.6 22.4 48 48 48h80v48c0 25.6 22.4 48 48 48h160c25.6 0 48-22.4 48-48v-48h80zm-144 0v32H192v-32h128z"/><glyph glyph-name="arrows-alt" unicode="" d="M352.201 22.225l-79.196-79.196c-9.373-9.373-24.569-9.373-33.94 0l-79.197 79.196c-15.12 15.119-4.411 40.971 16.97 40.97h51.163L228 164H127.196v-51.162c0-21.382-25.852-32.09-40.972-16.97L7.03 175.064c-9.373 9.372-9.373 24.568 0 33.94l79.195 79.197c15.12 15.119 40.972 4.41 40.972-16.972V220H228v100.804h-51.23c-21.382 0-32.09 25.852-16.971 40.972l79.196 79.195c9.373 9.373 24.568 9.373 33.94 0l79.197-79.195c15.119-15.12 4.41-40.972-16.971-40.972h-51.162V220h100.804v51.162c0 21.382 25.851 32.09 40.97 16.971l79.196-79.196c9.373-9.372 9.373-24.569 0-33.94L425.774 95.8c-15.12-15.119-40.972-4.411-40.971 16.972V164H284V63.196h51.23c21.382 0 32.09-25.851 16.971-40.971z"/><glyph glyph-name="users" unicode="" horiz-adv-x="640" d="M96 224c-35.3 0-64 28.7-64 64s28.7 64 64 64 64-28.7 64-64-28.7-64-64-64zm448 0c-35.3 0-64 28.7-64 64s28.7 64 64 64 64-28.7 64-64-28.7-64-64-64zm32-32c35.3 0 64-28.7 64-64V96c0-17.7-14.3-32-32-32h-66c-6.2 47.4-34.8 87.3-75.1 109.4 11.6 11.5 27.5 18.6 45.1 18.6h64zm-256 0c-61.9 0-112 50.1-112 112s50.1 112 112 112 112-50.1 112-112-50.1-112-112-112zm76.8-32C460.4 160 512 108.4 512 44.8V16c0-26.5-21.5-48-48-48H176c-26.5 0-48 21.5-48 48v28.8c0 63.6 51.6 115.2 115.2 115.2h8.3c20.9-10 43.9-16 68.5-16s47.7 6 68.5 16h8.3zm-223.7 13.4c-40.3-22.1-68.9-62-75.2-109.4H32C14.3 64 0 78.3 0 96v32c0 35.3 28.7 64 64 64h64c17.6 0 33.5-7.1 45.1-18.6z"/><glyph glyph-name="link" unicode="" d="M326.612 262.609c59.747-59.81 58.927-155.698.36-214.591-.11-.12-.24-.25-.36-.37l-67.2-67.2c-59.27-59.27-155.7-59.262-214.96 0-59.27 59.26-59.27 155.7 0 214.96l37.105 37.106c9.841 9.841 26.786 3.3 27.294-10.605.649-17.723 3.826-35.528 9.69-52.721 1.987-5.822.568-12.263-3.783-16.612l-13.086-13.087c-28.026-28.027-28.906-73.66-1.156-101.96 28.025-28.58 74.086-28.75 102.325-.511l67.2 67.19c28.192 28.192 28.074 73.757 0 101.83-3.7 3.695-7.428 6.564-10.34 8.57-3.665 2.515-6.778 8.163-6.948 12.605-.395 10.568 3.348 21.456 11.699 29.806l21.053 21.056c5.522 5.52 14.183 6.199 20.584 1.73 6.083-4.247 15.277-11.951 20.523-17.196zm140.935 140.942c59.27-59.26 59.27-155.7-.001-214.959l-37.105-37.106c-9.841-9.84-26.786-3.3-27.294 10.606-.649 17.723-3.827 35.527-9.69 52.722-1.987 5.821-.568 12.261 3.782 16.611l13.087 13.087c28.027 28.026 28.906 73.66 1.156 101.96-28.026 28.579-74.087 28.749-102.325.51l-67.2-67.19c-28.192-28.191-28.074-73.757 0-101.83 3.7-3.694 7.428-6.563 10.34-8.57 3.665-2.515 6.778-8.162 6.947-12.605.396-10.567-3.347-21.456-11.698-29.805l-21.053-21.056c-5.521-5.52-14.183-6.2-20.584-1.73-6.082 4.246-15.276 11.95-20.522 17.195-59.747 59.81-58.926 155.698-.36 214.59.11.12.24.25.36.37l67.2 67.2c59.27 59.27 155.7 59.263 214.96 0z"/><glyph glyph-name="cloud" unicode="" horiz-adv-x="640" d="M537.6 221.4C596 209.6 640 157.9 640 96c0-70.7-57.3-128-128-128H144C64.5-32 0 32.5 0 112c0 62.8 40.2 116.2 96.2 135.9-.1 2.7-.2 5.4-.2 8.1 0 88.4 71.6 160 160 160 59.3 0 111-32.2 138.7-80.2A95.51 95.51 0 00448 352c53 0 96-43 96-96 0-12.2-2.3-23.9-6.4-34.6z"/><glyph glyph-name="flask" unicode="" horiz-adv-x="448" d="M437.2 44.5C466.5-2.5 432.8-64 377.1-64H70.9C15.3-64-18.5-2.6 10.8 44.5L128 233v151h-8c-13.3 0-24 10.7-24 24v16c0 13.3 10.7 24 24 24h208c13.3 0 24-10.7 24-24v-16c0-13.3-10.7-24-24-24h-8V233zM137.9 128h172l-48.2 77.6c-3.6 5.2-5.8 11.5-5.8 18.4v160h-64V224c0-6.8-2.1-13.2-5.8-18.4z"/><glyph glyph-name="cut" unicode="" horiz-adv-x="448" d="M278.06 192L444.481 25.57c4.69-4.69 4.69-12.29 0-16.97-32.8-32.8-85.99-32.8-118.79 0L210.18 124.12l-24.86-24.86C189.63 88.34 192 76.45 192 64c0-53.02-42.98-96-96-96S0 10.98 0 64s42.98 96 96 96c4.53 0 8.99-.32 13.36-.93L142.29 192l-32.93 32.93A96.59 96.59 0 0096 224c-53.02 0-96 42.98-96 96s42.98 96 96 96 96-42.98 96-96c0-12.45-2.37-24.34-6.68-35.26l24.86-24.86L325.691 375.4c32.8 32.8 85.99 32.8 118.79 0 4.69-4.68 4.69-12.28 0-16.97zM96 288c17.64 0 32 14.36 32 32s-14.36 32-32 32-32-14.36-32-32 14.36-32 32-32zm0-256c17.64 0 32 14.36 32 32s-14.36 32-32 32-32-14.36-32-32 14.36-32 32-32z"/><glyph glyph-name="copy" unicode="" horiz-adv-x="448" d="M320 0v-40c0-13.255-10.745-24-24-24H24C10.745-64 0-53.255 0-40v368c0 13.255 10.745 24 24 24h72V56c0-30.879 25.121-56 56-56h168zm0 344c0-13.2 10.8-24 24-24h104V56c0-13.255-10.745-24-24-24H152c-13.255 0-24 10.745-24 24v368c0 13.255 10.745 24 24 24h168V344zm120.971 31.029c3.88-3.88 7.03-11.483 7.03-16.97v-6.06h-96v96h6.058c5.487 0 13.09-3.149 16.97-7.029z"/><glyph glyph-name="paperclip" unicode="" horiz-adv-x="448" d="M43.246-18.142c-58.43 60.29-57.34 157.511 1.386 217.581L254.392 414c44.316 45.332 116.352 45.336 160.672 0 43.89-44.893 43.942-117.329 0-162.276L232.214 64.872c-29.855-30.537-78.633-30.11-107.981.998-28.276 29.97-27.368 77.473 1.451 106.953l143.743 146.835c6.183 6.314 16.313 6.422 22.626.242l22.861-22.38c6.315-6.182 6.422-16.312.242-22.626l-143.73-146.82c-4.931-5.045-5.235-13.429-.647-18.292 4.372-4.634 11.245-4.711 15.688-.165l182.85 186.85c19.612 20.063 19.612 52.726-.012 72.799-19.189 19.627-49.957 19.637-69.153 0L90.39 154.706c-34.763-35.56-35.3-93.12-1.19-128.313 34.009-35.093 88.984-35.137 123.057-.286l172.061 176c6.177 6.318 16.307 6.432 22.626.255l22.877-22.364c6.318-6.177 6.434-16.307.256-22.626L258.016-18.626c-59.575-60.938-155.942-60.216-214.77.485z"/><glyph glyph-name="save" unicode="" horiz-adv-x="448" d="M433.941 318.059c7.76-7.76 14.059-22.966 14.059-33.94V16c0-26.51-21.49-48-48-48H48C21.49-32 0-10.51 0 16v352c0 26.51 21.49 48 48 48h268.118c10.974 0 26.18-6.3 33.94-14.059zM224 32c35.346 0 64 28.654 64 64s-28.654 64-64 64-64-28.654-64-64 28.654-64 64-64zm96 304.52c0 2.743-1.575 6.546-3.515 8.485l-3.48 3.48A11.995 11.995 0 01304.52 352H76c-6.627 0-12-5.373-12-12V236c0-6.626 5.373-12 12-12h232c6.626 0 12 5.374 12 12v100.52z"/><glyph glyph-name="square" unicode="" horiz-adv-x="448" d="M400 416c26.5 0 48-21.5 48-48V16c0-26.5-21.5-48-48-48H48C21.5-32 0-10.5 0 16v352c0 26.5 21.5 48 48 48h352z"/><glyph glyph-name="bars" unicode="" horiz-adv-x="448" d="M16 316c-8.837 0-16 7.163-16 16v40c0 8.837 7.163 16 16 16h416c8.837 0 16-7.163 16-16v-40c0-8.837-7.163-16-16-16H16zm0-160c-8.837 0-16 7.163-16 16v40c0 8.837 7.163 16 16 16h416c8.837 0 16-7.163 16-16v-40c0-8.837-7.163-16-16-16H16zM16-4C7.163-4 0 3.163 0 12v40c0 8.837 7.163 16 16 16h416c8.837 0 16-7.163 16-16V12c0-8.837-7.163-16-16-16H16z"/><glyph glyph-name="list-ul" unicode="" d="M48 400c26.496 0 48-21.504 48-48s-21.504-48-48-48-48 21.504-48 48 21.504 48 48 48zm0-160c26.496 0 48-21.504 48-48s-21.504-48-48-48-48 21.504-48 48 21.504 48 48 48zm0-160c26.496 0 48-21.504 48-48S74.496-16 48-16 0 5.504 0 32s21.504 48 48 48zm448-16c8.832 0 16-7.168 16-16V16c0-8.832-7.168-16-16-16H176c-8.832 0-16 7.168-16 16v32c0 8.832 7.168 16 16 16h320zm0 320c8.832 0 16-7.168 16-16v-32c0-8.832-7.168-16-16-16H176c-8.832 0-16 7.168-16 16v32c0 8.832 7.168 16 16 16h320zm0-160c8.832 0 16-7.168 16-16v-32c0-8.832-7.168-16-16-16H176c-8.832 0-16 7.168-16 16v32c0 8.832 7.168 16 16 16h320z"/><glyph glyph-name="list-ol" unicode="" d="M61.77 47c19.61-5.12 28.7-20.5 28.73-34.88C90.5-9.25 76.16-32 42-32c-16.62 0-29.29 4.75-37 9.44-5.82 4.22-6.35 9.81-2.63 15.94l5.59 9.31c3.86 6.62 9.11 7 15.6 3.12 4.103-1.687 11.034-3.085 15.47-3.12 10.16 0 14.36 3.5 14.36 8.22 0 6.65-5.61 9.09-15.94 9.09h-4.73c-5.96 0-9.25 2.12-12.25 7.88l-1.05 1.93c-2.45 4.75-1.2 9.81 2.8 14.88l5.61 7c2.857 3.557 7.785 9.072 11 12.31H16c-4.416 0-8 3.584-8 8v16c0 4.416 3.584 8 8 8h57c7.5 0 11.34-4 11.34-11.35v-3.31c.01-.245.02-.645.02-.89 0-4.209-2.28-10.167-5.09-13.3zM496 224c8.832 0 16-7.168 16-16v-32c0-8.832-7.168-16-16-16H176c-8.832 0-16 7.168-16 16v32c0 8.832 7.168 16 16 16h320zm0 160c8.832 0 16-7.168 16-16v-32c0-8.832-7.168-16-16-16H176c-8.832 0-16 7.168-16 16v32c0 8.832 7.168 16 16 16h320zm0-320c8.832 0 16-7.168 16-16V16c0-8.832-7.168-16-16-16H176c-8.832 0-16 7.168-16 16v32c0 8.832 7.168 16 16 16h320zM16 288c-4.416 0-8 3.584-8 8v16c0 4.416 3.584 8 8 8h16v64h-8c-4.408.008-7.985 3.592-7.985 8 0 1.043.379 2.647.845 3.58l8 16c1.218 2.435 4.417 4.415 7.14 4.42h24c4.416 0 8-3.584 8-8v-88h16c4.416 0 8-3.584 8-8v-16c0-4.416-3.584-8-8-8H16zm-3.91-160C5.08 128 0 132 0 139.41v4c0 47.28 51 56.4 50.97 69.12 0 7.19-5.95 8.75-9.28 8.75h-.054c-3.029 0-7.242-1.72-9.406-3.84-5.12-4.91-10.51-7-16.12-2.44l-8.58 6.88c-5.8 4.53-7.17 9.78-2.8 15.37C11.39 246 23.83 256 45.19 256c19.47 0 44.47-10.5 44.47-39.56 0-37.76-45.05-46.15-48.34-56.44H80c4.416 0 8-3.584 8-8v-16c0-4.416-3.584-8-8-8H12.09z"/><glyph glyph-name="strikethrough" unicode="" d="M496 224c8.832 0 16-7.168 16-16v-32c0-8.832-7.168-16-16-16H16c-8.832 0-16 7.168-16 16v32c0 8.832 7.168 16 16 16h102.29c-11.68 16.53-19.78 35.47-21.78 56.36-.32 3.293-.58 8.652-.58 11.96 0 68.216 55.364 123.624 123.58 123.68h68.011c43.687 0 94.987-31.718 114.51-70.8l.529-1c.93-1.863 1.686-5.066 1.686-7.148 0-5.459-3.963-11.87-8.846-14.311l-42.94-21.471c-1.864-.932-5.068-1.688-7.152-1.688-5.456 0-11.866 3.96-14.308 8.838-7.611 15.225-27.602 27.58-44.624 27.58H219.55c-24.04 0-43.549-19.51-43.549-43.55 0-17.748 13.767-36.394 30.73-41.62L293.9 224H496zm-180.24-96h94.39c2.213-6.562 4.604-17.475 5.34-24.36.32-3.293.58-8.652.58-11.96 0-68.216-55.364-123.624-123.58-123.68h-68.01c-43.687 0-94.986 31.718-114.51 70.8l-.528 1c-.931 1.863-1.687 5.066-1.687 7.148 0 5.459 3.963 11.87 8.846 14.311l42.94 21.471c1.864.932 5.068 1.688 7.152 1.688 5.456 0 11.866-3.96 14.308-8.838C188.611 60.355 208.603 48 225.624 48h66.826c24.018.022 43.527 19.532 43.55 43.55-.01 13.157-9.077 29.486-20.24 36.45z"/><glyph glyph-name="underline" unicode="" horiz-adv-x="448" d="M32 384c-8.832 0-16 7.168-16 16v32c0 8.832 7.168 16 16 16h144c8.832 0 16-7.168 16-16v-32c0-8.832-7.168-16-16-16h-32V224c0-44.16 35.84-80 80-80s80 35.84 80 80v160h-32c-8.832 0-16 7.168-16 16v32c0 8.832 7.168 16 16 16h144c8.832 0 16-7.168 16-16v-32c0-8.832-7.168-16-16-16h-32V224c0-88.22-71.78-160-160-160S64 135.78 64 224v160H32zM432 0c8.832 0 16-7.168 16-16v-32c0-8.832-7.168-16-16-16H16C7.168-64 0-56.832 0-48v32C0-7.168 7.168 0 16 0h416z"/><glyph glyph-name="table" unicode="" d="M464 416c26.51 0 48-21.49 48-48V16c0-26.51-21.49-48-48-48H48C21.49-32 0-10.51 0 16v352c0 26.51 21.49 48 48 48h416zM224 32v96H64V32h160zm0 160v96H64v-96h160zM448 32v96H288V32h160zm0 160v96H288v-96h160z"/><glyph glyph-name="magic" unicode="" d="M224 352l-16 32-32 16 32 16 16 32 16-32 32-16-32-16zM80 288l-26.66 53.33L0 368l53.34 26.67L80 448l26.66-53.33L160 368l-53.34-26.67zm352-128l26.66-53.33L512 80l-53.34-26.67L432 0l-26.66 53.33L352 80l53.34 26.67zm70.62 193.77c12.5-12.49 12.5-32.76 0-45.24L139.48-54.62c-6.25-6.25-14.44-9.37-22.63-9.37-8.18 0-16.37 3.12-22.62 9.37L9.38 30.232c-12.5 12.49-12.5 32.75 0 45.25l363.14 363.14c6.25 6.26 14.44 9.38 22.63 9.38s16.38-3.12 22.62-9.38zM359.45 244.54l86.6 86.6-50.91 50.91-86.6-86.6z"/><glyph glyph-name="truck" unicode="" horiz-adv-x="640" d="M624 96c8.8 0 16-7.2 16-16V48c0-8.8-7.2-16-16-16h-48c0-53-43-96-96-96s-96 43-96 96H256c0-53-43-96-96-96S64-21 64 32H48C21.5 32 0 53.5 0 80v320c0 26.5 21.5 48 48 48h320c26.5 0 48-21.5 48-48v-48h44.1c12.7 0 24.9-5.1 33.9-14.1l99.9-99.9c9-9 14.1-21.2 14.1-33.9V96h16zM160-16c26.5 0 48 21.5 48 48s-21.5 48-48 48-48-21.5-48-48 21.5-48 48-48zm320 0c26.5 0 48 21.5 48 48s-21.5 48-48 48-48-21.5-48-48 21.5-48 48-48zm80 208v12.1L460.1 304H416V192h144z"/><glyph glyph-name="money-bill" unicode="" horiz-adv-x="640" d="M608 384c17.67 0 32-14.33 32-32V32c0-17.67-14.33-32-32-32H32C14.33 0 0 14.33 0 32v320c0 17.67 14.33 32 32 32h576zM48 48h64c0 35.35-28.65 64-64 64V48zm0 224c35.35 0 64 28.65 64 64H48v-64zM320 96c44.17 0 80 42.97 80 96 0 53.02-35.82 96-80 96s-80-42.98-80-96c0-53.01 35.81-96 80-96zm272-48v64c-35.35 0-64-28.65-64-64h64zm0 224v64h-64c0-35.35 28.65-64 64-64z"/><glyph glyph-name="caret-down" unicode="" horiz-adv-x="320" d="M31.3 256h257.3c17.8 0 26.7-21.5 14.1-34.1L174.1 93.2c-7.8-7.8-20.5-7.8-28.3 0L17.2 221.9C4.599 234.5 13.5 256 31.3 256z"/><glyph glyph-name="caret-up" unicode="" horiz-adv-x="320" d="M288.662 96H31.338c-17.818 0-26.741 21.543-14.142 34.142l128.662 128.662c7.81 7.81 20.474 7.81 28.284 0l128.662-128.662C315.404 117.543 306.48 96 288.662 96z"/><glyph glyph-name="caret-left" unicode="" horiz-adv-x="192" d="M192 320.662V63.338c0-17.818-21.543-26.741-34.142-14.142L29.196 177.858c-7.81 7.81-7.81 20.474 0 28.284l128.662 128.662c12.599 12.6 34.142 3.676 34.142-14.142z"/><glyph glyph-name="caret-right" unicode="" horiz-adv-x="192" d="M0 63.338v257.324c0 17.818 21.543 26.741 34.142 14.142l128.662-128.662c7.81-7.81 7.81-20.474 0-28.284L34.142 49.196C21.543 36.596 0 45.52 0 63.338z"/><glyph glyph-name="columns" unicode="" d="M464 416c26.51 0 48-21.49 48-48V16c0-26.51-21.49-48-48-48H48C21.49-32 0-10.51 0 16v352c0 26.51 21.49 48 48 48h416zM224 32v256H64V32h160zm224 0v256H288V32h160z"/><glyph glyph-name="sort" unicode="" horiz-adv-x="320" d="M41 160h238c21.4 0 32.1-25.9 17-41L177 0c-9.4-9.4-24.6-9.4-33.9 0L24 119c-15.1 15.1-4.4 41 17 41zm255 105c15.1-15.1 4.4-41-17-41H41c-21.4 0-32.1 25.9-17 41l119.1 119c9.3 9.4 24.5 9.4 33.9 0z"/><glyph glyph-name="sort-down" unicode="" horiz-adv-x="320" d="M41 160h238c21.4 0 32.1-25.9 17-41L177 0c-9.4-9.4-24.6-9.4-33.9 0L24 119c-15.1 15.1-4.4 41 17 41z"/><glyph glyph-name="sort-up" unicode="" horiz-adv-x="320" d="M279 224H41c-21.4 0-32.1 25.9-17 41l119 119c9.4 9.4 24.6 9.4 33.9 0l119-119c15.2-15.1 4.5-41-16.9-41z"/><glyph glyph-name="envelope" unicode="" d="M502.3 257.2c3.9 3.1 9.7.2 9.7-4.7V48c0-26.5-21.5-48-48-48H48C21.5 0 0 21.5 0 48v204.4c0 5 5.7 7.8 9.7 4.699 22.4-17.4 52.1-39.5 154.1-113.6 21.101-15.4 56.7-47.8 92.2-47.6 35.7-.3 72 32.8 92.3 47.6 102 74.1 131.601 96.3 154 113.7zM256 128c-23.2-.4-56.6 29.2-73.4 41.4C49.9 265.7 39.8 274.2 9.2 298.1 3.4 302.7 0 309.6 0 317v19c0 26.5 21.5 48 48 48h416c26.5 0 48-21.5 48-48v-19c0-7.4-3.4-14.4-9.2-18.9-30.6-24-40.7-32.4-173.399-128.7-16.8-12.2-50.2-41.8-73.4-41.4z"/><glyph glyph-name="undo" unicode="" d="M212.333 223.667H12c-6.627 0-12 5.373-12 12V436c0 6.627 5.373 12 12 12h48c6.627 0 12-5.373 12-12v-78.112c45.773 50.833 112.26 82.642 186.175 82.105C395.081 439 504.623 328.37 504.332 191.461c-.291-136.719-111.212-247.46-247.999-247.46-64.089 0-122.496 24.313-166.51 64.214-5.1 4.622-5.334 12.554-.467 17.42l33.967 33.967c4.474 4.474 11.662 4.717 16.4.525C170.76 32.664 211.58 16 256.333 16c97.267 0 176 78.716 176 176 0 97.267-78.716 176-176 176-58.497 0-110.28-28.476-142.275-72.333h98.275c6.627 0 12-5.373 12-12v-48c0-6.627-5.373-12-12-12z"/><glyph glyph-name="gavel" unicode="" d="M504.971 248.638c9.372-9.373 9.372-24.568 0-33.94L380.52 90.247c-9.371-9.373-24.567-9.373-33.94 0l-22.627 22.627c-9.373 9.372-9.373 24.568 0 33.941l5.657 5.656-39.599 39.599-81.04-81.04 5.657-5.657c12.498-12.497 12.498-32.758 0-45.255L99.883-54.627c-12.497-12.497-32.757-12.497-45.254 0L9.374-9.372c-12.497 12.497-12.497 32.757 0 45.255l114.744 114.746c12.497 12.497 32.757 12.497 45.255 0l5.657-5.658 81.04 81.04-39.599 39.599-5.656-5.657c-9.372-9.373-24.568-9.373-33.941 0l-22.627 22.627c-9.374 9.372-9.374 24.568 0 33.94l124.45 124.451c9.373 9.373 24.568 9.373 33.94 0l22.628-22.628c9.373-9.372 9.373-24.567 0-33.94l-5.656-5.657 113.138-113.137 5.657 5.656c9.372 9.373 24.567 9.373 33.94 0z"/><glyph glyph-name="bolt" unicode="" horiz-adv-x="320" d="M296 288c18.5 0 30-20.1 20.7-36l-176-304c-4.4-7.6-12.4-12-20.8-12-15.3 0-26.9 14.3-23.3 29.5L142.7 160H24C9.5 160-1.7 172.8.2 187.2l32 240C33.8 439.1 44 448 56 448h144c15.7 0 27.2-15 23.2-30.2L180.6 288H296z"/><glyph glyph-name="sitemap" unicode="" horiz-adv-x="640" d="M128 96c17.67 0 32-14.33 32-32v-96c0-17.67-14.33-32-32-32H32C14.33-64 0-49.67 0-32v96c0 17.67 14.33 32 32 32h96zm-24 80v-48H56v57.59C56 206.77 73.23 224 94.41 224H296v64h-40c-17.67 0-32 14.33-32 32v96c0 17.67 14.33 32 32 32h128c17.67 0 32-14.33 32-32v-96c0-17.67-14.33-32-32-32h-40v-64h201.59c21.18 0 38.41-17.24 38.41-38.41V128h-48v48H344v-48h-48v48H104zm264-80c17.67 0 32-14.33 32-32v-96c0-17.67-14.33-32-32-32h-96c-17.67 0-32 14.33-32 32v96c0 17.67 14.33 32 32 32h96zm240 0c17.67 0 32-14.33 32-32v-96c0-17.67-14.33-32-32-32h-96c-17.67 0-32 14.33-32 32v96c0 17.67 14.33 32 32 32h96z"/><glyph glyph-name="umbrella" unicode="" horiz-adv-x="576" d="M575.7 167.2c2.2-10.1-8.4-21.4-18.7-11.4-51.5 54.4-107.6 52.5-158.6-37-5.301-9.5-14.9-8.6-19.7 0-2.5 4.4-32.2 73.2-90.7 73.2-45.8 0-70.5-37.8-90.7-73.2-4.8-8.6-14.4-9.5-19.701 0-50.9 89.4-106.6 92-158.6 37-10.2-9.9-20.9 1.3-18.7 11.4 29.2 136.3 138 218.2 255.7 230.899v17.9c0 17.7 14.3 32 32 32s32-14.3 32-32v-17.9c117.3-12.7 227.1-94.6 255.7-230.899zM256 146.3c9.6 8.9 19.7 13.6 32 13.7 12.2 0 22.9-5.7 32-13.6V16.1c0-44.1-35.9-80-80-80-33.8 0-64.2 21.4-75.4 53.3-5.9 16.6 2.8 34.9 19.5 40.8 16.7 5.9 34.9-2.8 40.8-19.5C226.8 5.3 232.2 0 240 0c8.8 0 16 7.2 16 16v130.3z"/><glyph glyph-name="paste" unicode="" horiz-adv-x="448" d="M128 264V32H24C10.745 32 0 42.745 0 56v336c0 13.255 10.745 24 24 24h80.61c11.084 19.11 31.753 32 55.39 32s44.306-12.89 55.39-32H296c13.255 0 24-10.745 24-24v-72H184c-30.878 0-56-25.121-56-56zm32 144c-13.255 0-24-10.745-24-24s10.745-24 24-24 24 10.745 24 24-10.745 24-24 24zm184-248h104V-40c0-13.255-10.745-24-24-24H184c-13.255 0-24 10.745-24 24v304c0 13.255 10.745 24 24 24h136V184c0-13.2 10.8-24 24-24zm104 38.059V192h-96v96h6.059c5.487 0 13.09-3.149 16.97-7.029l65.94-65.94c3.882-3.881 7.031-11.484 7.031-16.972z"/><glyph glyph-name="lightbulb" unicode="" horiz-adv-x="352" d="M96.06-6.35L96.01 32h159.98l-.04-38.35c-.006-5.329-2.407-13.255-5.36-17.69L233.5-49.73c-5.24-7.882-17.175-14.28-26.64-14.28h-61.71c-9.466 0-21.4 6.398-26.64 14.28l-17.09 25.69a32.02 32.02 0 00-5.36 17.69zM0 272c0 93.03 73.44 175.69 175.45 176 97.46.3 176.55-78.61 176.55-176 0-44.37-16.45-84.85-43.56-115.78-16.52-18.85-42.36-58.23-52.21-91.45-.04-.27-.07-.52-.11-.78H95.88c-.04.26-.07.52-.11.78-9.85 33.22-35.69 72.6-52.21 91.45C16.45 187.15 0 227.63 0 272zm176 80c8.84 0 16 7.16 16 16s-7.16 16-16 16c-61.76 0-112-50.24-112-112 0-8.84 7.16-16 16-16s16 7.16 16 16c0 44.11 35.89 80 80 80z"/><glyph glyph-name="user-md" unicode="" horiz-adv-x="448" d="M224 192c-70.7 0-128 57.3-128 128s57.3 128 128 128 128-57.3 128-128-57.3-128-128-128zM104 24c0 13.3 10.7 24 24 24s24-10.7 24-24-10.7-24-24-24-24 10.7-24 24zm216 135.4c71.2-3.5 128-61.8 128-133.801v-44.8c0-24.7-20.1-44.8-44.8-44.8H44.8C20.1-64 0-43.9 0-19.2v44.8C0 92.2 48.5 147 112.1 157.701V77.3c-23.1-6.9-40-28.1-40-53.4 0-30.9 25.101-56 56-56 30.9 0 56 25.1 56 56 0 25.3-16.899 46.5-40 53.4v81.6c7.7-1 15.2-2.6 22.601-5.2 18-6.3 37.3-9.8 57.4-9.8s39.4 3.5 57.4 9.8c2.2.8 4.4 1.2 6.6 1.9v-45.2c-36.5-7.5-64-39.8-64-78.4v-43.8c0-8.1 5.9-14.8 13.8-15.9l31.2-4.2c4.3-.8 8.5 2 9.4 6.3l3.1 15.7c.8 4.3-2 8.5-6.3 9.4L256 3.4v26.7c0 67 96 64.7 96 1.9V3.5L332.7-.4c-4.4-.8-7.2-5.1-6.3-9.4l3.1-15.7c.9-4.4 5.1-7.2 9.4-6.3l32.2 6.4c7.5 1.5 12.9 8.1 12.9 15.7V32c0 38.6-27.5 71-64 78.4v49z"/><glyph glyph-name="stethoscope" unicode="" d="M447.1 336c35.7.5 64.9-28.3 64.9-64 0-23.7-12.9-44.3-32-55.4V104c0-92.6-79-168-176-168-95.4 0-173.3 72.8-175.9 163.2C55.1 114 0 178.7 0 256v155.4c0 11.5 8.1 21.3 19.3 23.6l62.8 12.4c13 2.6 25.6-5.801 28.2-18.801l3.1-15.7c2.6-13-5.8-25.6-18.8-28.2l-30.7-6.1v-122.5c0-53.3 43.5-96.5 96.9-96 52.9.5 95.1 44.3 95.1 97.2v121.4l-30.7 6.1c-13 2.6-21.4 15.2-18.8 28.2l3.2 15.7c2.6 13 15.2 21.4 28.2 18.8l62.9-12.6c11.2-2.2 19.3-12.1 19.3-23.5V256c0-77.2-55-141.8-127.8-156.8C194.9 44.1 244.1 0 304.1 0c61.8 0 112 46.7 112 104v112.6a63.846 63.846 0 00-32 56.8c.7 34.2 28.8 62.1 63 62.6zm.9-80c8.8 0 16 7.2 16 16s-7.2 16-16 16-16-7.2-16-16 7.2-16 16-16z"/><glyph glyph-name="suitcase" unicode="" d="M128-32v400c0 26.5 21.5 48 48 48h160c26.5 0 48-21.5 48-48V-32H128zm64 384v-32h128v32H192zm320-80V16c0-26.5-21.5-48-48-48h-48v352h48c26.5 0 48-21.5 48-48zM96-32H48C21.5-32 0-10.5 0 16v256c0 26.5 21.5 48 48 48h48V-32z"/><glyph glyph-name="bell" unicode="" horiz-adv-x="448" d="M224-64c-35.32 0-63.97 28.65-63.97 64h127.94c0-35.35-28.65-64-63.97-64zM439.39 85.71c6-6.44 8.66-14.16 8.61-21.71-.1-16.4-12.98-32-32.1-32H32.1C12.98 32 .11 47.6 0 64c-.05 7.55 2.61 15.26 8.61 21.71C27.93 106.47 64.08 137.7 64.08 240c0 77.7 54.48 139.9 127.94 155.16V416c0 17.67 14.32 32 31.98 32s31.98-14.33 31.98-32v-20.84C329.44 379.9 383.92 317.7 383.92 240c0-102.3 36.15-133.53 55.469-154.29z"/><glyph glyph-name="coffee" unicode="" horiz-adv-x="640" d="M192 64c-53 0-96 43-96 96v232c0 13.3 10.7 24 24 24h392c70.6 0 128-57.4 128-128s-57.4-128-128-128h-32c0-53-43-96-96-96H192zm320 288h-32V224h32c35.3 0 64 28.7 64 64s-28.7 64-64 64zm47.7-384H48.3c-47.6 0-61 64-36 64h583.3c25 0 11.8-64-35.9-64z"/><glyph glyph-name="hospital" unicode="" horiz-adv-x="448" d="M448-44v-20H0v20c0 6.627 5.373 12 12 12h20v360c0 13.255 10.745 24 24 24h88v72c0 13.255 10.745 24 24 24h112c13.255 0 24-10.745 24-24v-72h88c13.255 0 24-10.745 24-24V-32h20c6.627 0 12-5.373 12-12zM308 256h-40c-6.627 0-12-5.373-12-12v-40c0-6.627 5.373-12 12-12h40c6.627 0 12 5.373 12 12v40c0 6.627-5.373 12-12 12zm-168-64h40c6.627 0 12 5.373 12 12v40c0 6.627-5.373 12-12 12h-40c-6.627 0-12-5.373-12-12v-40c0-6.627 5.373-12 12-12zM244 64h-40c-6.627 0-12-5.373-12-12v-84h64v84c0 6.627-5.373 12-12 12zm64 96h-40c-6.627 0-12-5.373-12-12v-40c0-6.627 5.373-12 12-12h40c6.627 0 12 5.373 12 12v40c0 6.627-5.373 12-12 12zm-116-12c0 6.627-5.373 12-12 12h-40c-6.627 0-12-5.373-12-12v-40c0-6.627 5.373-12 12-12h40c6.627 0 12 5.373 12 12v40zm-10 204h26v-26c0-3.312 2.688-6 6-6h20c3.312 0 6 2.688 6 6v26h26c3.312 0 6 2.688 6 6v20c0 3.312-2.688 6-6 6h-26v26c0 3.312-2.688 6-6 6h-20c-3.312 0-6-2.688-6-6v-26h-26c-3.312 0-6-2.688-6-6v-20c0-3.312 2.688-6 6-6z"/><glyph glyph-name="ambulance" unicode="" horiz-adv-x="640" d="M624 96c8.8 0 16-7.2 16-16V48c0-8.8-7.2-16-16-16h-48c0-53-43-96-96-96s-96 43-96 96H256c0-53-43-96-96-96S64-21 64 32H48C21.5 32 0 53.5 0 80v320c0 26.5 21.5 48 48 48h320c26.5 0 48-21.5 48-48v-48h44.1c12.7 0 24.9-5.1 33.9-14.1l99.9-99.9c9-9 14.1-21.2 14.1-33.9V96h16zM160-16c26.5 0 48 21.5 48 48s-21.5 48-48 48-48-21.5-48-48 21.5-48 48-48zm144 248v48c0 4.4-3.6 8-8 8h-56v56c0 4.4-3.6 8-8 8h-48c-4.4 0-8-3.6-8-8v-56h-56c-4.4 0-8-3.6-8-8v-48c0-4.4 3.6-8 8-8h56v-56c0-4.4 3.6-8 8-8h48c4.4 0 8 3.6 8 8v56h56c4.4 0 8 3.6 8 8zM480-16c26.5 0 48 21.5 48 48s-21.5 48-48 48-48-21.5-48-48 21.5-48 48-48zm80 208v12.1L460.1 304H416V192h144z"/><glyph glyph-name="medkit" unicode="" d="M96-32v352h32v48c0 26.51 21.49 48 48 48h160c26.51 0 48-21.49 48-48v-48h32V-32H96zm96 384v-32h128v32H192zm320-80V16c0-26.51-21.49-48-48-48h-16v352h16c26.51 0 48-21.49 48-48zM64-32H48C21.49-32 0-10.51 0 16v256c0 26.51 21.49 48 48 48h16V-32zm288 208c0 8.837-7.163 16-16 16h-48v48c0 8.837-7.163 16-16 16h-32c-8.837 0-16-7.163-16-16v-48h-48c-8.837 0-16-7.163-16-16v-32c0-8.837 7.163-16 16-16h48V80c0-8.837 7.163-16 16-16h32c8.837 0 16 7.163 16 16v48h48c8.837 0 16 7.163 16 16v32z"/><glyph glyph-name="fighter-jet" unicode="" horiz-adv-x="640" d="M544 224c96-21.333 96-26.583 96-32s0-10.667-96-32l-128-16-48-16h-24L227.158-20h39.509C278.333-20 288-22.625 288-26s-9.666-6-21.333-6H152v12h16v164h-48L53.334 64H18.667L8 74.667V144h8v16h48v2.667l-64 8v42.667l64 8V224H16v16H8v69.333L18.667 320h34.666L120 240h48v164h-16v12h114.667c11.666 0 21.333-2.625 21.333-6s-9.667-6-21.333-6h-39.509L344 256h24l48-16z"/><glyph glyph-name="beer" unicode="" horiz-adv-x="448" d="M368 352c44.112 0 80-35.888 80-80V143.14c0-31.527-18.604-60.203-47.394-73.053L320 34.111V-8c0-13.256-10.745-24-24-24H24C10.745-32 0-21.256 0-8v400c0 13.254 10.745 24 24 24h272c13.255 0 24-10.746 24-24v-40h48zm16-208.86V272c0 8.822-7.178 16-16 16h-48V104.195l54.522 24.334c5.227 2.338 9.474 8.884 9.478 14.61zM208 64c8.836 0 16 7.164 16 16v224c0 8.836-7.164 16-16 16s-16-7.164-16-16V80c0-8.836 7.164-16 16-16zm-96 0c8.836 0 16 7.164 16 16v224c0 8.836-7.164 16-16 16s-16-7.164-16-16V80c0-8.836 7.164-16 16-16z"/><glyph glyph-name="h-square" unicode="" horiz-adv-x="448" d="M448 368V16c0-26.51-21.49-48-48-48H48C21.49-32 0-10.51 0 16v352c0 26.51 21.49 48 48 48h352c26.51 0 48-21.49 48-48zm-112-48h-32c-8.837 0-16-7.163-16-16v-80H160v80c0 8.837-7.163 16-16 16h-32c-8.837 0-16-7.163-16-16V80c0-8.837 7.163-16 16-16h32c8.837 0 16 7.163 16 16v80h128V80c0-8.837 7.163-16 16-16h32c8.837 0 16 7.163 16 16v224c0 8.837-7.163 16-16 16z"/><glyph glyph-name="plus-square" unicode="" horiz-adv-x="448" d="M400 416c26.5 0 48-21.5 48-48V16c0-26.5-21.5-48-48-48H48C21.5-32 0-10.5 0 16v352c0 26.5 21.5 48 48 48h352zm-32-252v56c0 6.6-5.4 12-12 12h-92v92c0 6.6-5.4 12-12 12h-56c-6.6 0-12-5.4-12-12v-92H92c-6.6 0-12-5.4-12-12v-56c0-6.6 5.4-12 12-12h92V60c0-6.6 5.4-12 12-12h56c6.6 0 12 5.4 12 12v92h92c6.6 0 12 5.4 12 12z"/><glyph glyph-name="angle-double-left" unicode="" horiz-adv-x="448" d="M223.7 209l136 136c9.4 9.4 24.6 9.4 33.9 0l22.6-22.6c9.4-9.4 9.4-24.6 0-33.9L319.9 192l96.4-96.4c9.4-9.4 9.4-24.6 0-33.9L393.7 39c-9.4-9.4-24.6-9.4-33.9 0l-136 136c-9.5 9.4-9.5 24.6-.1 34zm-192-34c-9.4 9.4-9.4 24.6.1 34l136 136c9.3 9.4 24.5 9.4 33.9 0l22.6-22.7c9.4-9.3 9.4-24.5 0-33.9L127.9 192l96.3-96.5c9.4-9.3 9.4-24.5 0-33.9L201.6 39c-9.3-9.4-24.5-9.4-33.9 0z"/><glyph glyph-name="angle-double-right" unicode="" horiz-adv-x="448" d="M224.3 175L88.3 39c-9.4-9.4-24.6-9.4-33.9 0L31.8 61.6c-9.4 9.4-9.4 24.6 0 33.9l96.4 96.4-96.4 96.4c-9.4 9.4-9.4 24.6 0 33.9L54.3 345c9.4 9.4 24.6 9.4 33.9 0l136-136c9.5-9.4 9.5-24.6.1-34zm192 34c9.4-9.4 9.4-24.6 0-33.8l-136-136c-9.3-9.4-24.5-9.4-33.9 0l-22.6 22.6c-9.4 9.3-9.4 24.5 0 33.9l96.4 96.4-96.4 96.4c-9.4 9.3-9.4 24.5 0 33.9l22.6 22.6c9.3 9.4 24.5 9.4 33.9 0z"/><glyph glyph-name="angle-double-up" unicode="" horiz-adv-x="320" d="M177 192.3l136-136c9.4-9.4 9.4-24.6 0-33.9L290.4-.2c-9.4-9.4-24.6-9.4-33.9 0L160 96.1 63.6-.3C54.2-9.7 39-9.7 29.7-.3L7 22.3c-9.4 9.4-9.4 24.6 0 33.9l136 136c9.4 9.5 24.6 9.5 34 .1zm-34 192c9.4 9.4 24.6 9.4 33.8 0l136-136c9.4-9.3 9.4-24.5 0-33.9l-22.6-22.6c-9.3-9.4-24.5-9.4-33.9 0l-96.4 96.4-96.4-96.4c-9.3-9.4-24.5-9.4-33.9 0L7 214.4c-9.4 9.3-9.4 24.5 0 33.9z"/><glyph glyph-name="angle-double-down" unicode="" horiz-adv-x="320" d="M143 191.7L7 327.7c-9.4 9.4-9.4 24.6 0 33.9l22.6 22.6c9.4 9.4 24.6 9.4 33.9 0l96.4-96.4 96.4 96.4c9.4 9.4 24.6 9.4 33.9 0l22.8-22.5c9.4-9.4 9.4-24.6 0-33.9l-136-136c-9.4-9.5-24.6-9.5-34-.1zm34-192c-9.4-9.4-24.6-9.4-34 .1L7 135.8c-9.4 9.3-9.4 24.5 0 33.9l22.7 22.6c9.3 9.4 24.5 9.4 33.9 0L160 95.9l96.5 96.3c9.3 9.4 24.5 9.4 33.9 0l22.6-22.6c9.4-9.3 9.4-24.5 0-33.9z"/><glyph glyph-name="angle-left" unicode="" horiz-adv-x="256" d="M31.7 209l136 136c9.4 9.4 24.6 9.4 33.9 0l22.6-22.6c9.4-9.4 9.4-24.6 0-33.9L127.9 192l96.4-96.4c9.4-9.4 9.4-24.6 0-33.9L201.7 39c-9.4-9.4-24.6-9.4-33.9 0l-136 136c-9.5 9.4-9.5 24.6-.1 34z"/><glyph glyph-name="angle-right" unicode="" horiz-adv-x="256" d="M224.3 175L88.3 39c-9.4-9.4-24.6-9.4-33.9 0L31.8 61.6c-9.4 9.4-9.4 24.6 0 33.9l96.4 96.4-96.4 96.4c-9.4 9.4-9.4 24.6 0 33.9L54.3 345c9.4 9.4 24.6 9.4 33.9 0l136-136c9.5-9.4 9.5-24.6.1-34z"/><glyph glyph-name="angle-up" unicode="" horiz-adv-x="320" d="M177 288.3l136-136c9.4-9.4 9.4-24.6 0-33.9l-22.6-22.6c-9.4-9.4-24.6-9.4-33.9 0L160 192.1 63.6 95.7c-9.4-9.4-24.6-9.4-33.9 0L7 118.3c-9.4 9.4-9.4 24.6 0 33.9l136 136c9.4 9.5 24.6 9.5 34 .1z"/><glyph glyph-name="angle-down" unicode="" horiz-adv-x="320" d="M143 95.7L7 231.7c-9.4 9.4-9.4 24.6 0 33.9l22.6 22.6c9.4 9.4 24.6 9.4 33.9 0l96.4-96.4 96.4 96.4c9.4 9.4 24.6 9.4 33.9 0l22.6-22.6c9.4-9.4 9.4-24.6 0-33.9l-136-136c-9.2-9.4-24.4-9.4-33.8 0z"/><glyph glyph-name="desktop" unicode="" horiz-adv-x="576" d="M528 448c26.5 0 48-21.5 48-48V80c0-26.5-21.5-48-48-48H336l16-48h72c13.3 0 24-10.7 24-24s-10.7-24-24-24H152c-13.3 0-24 10.7-24 24s10.7 24 24 24h72l16 48H48C21.5 32 0 53.5 0 80v320c0 26.5 21.5 48 48 48h480zM512 96v288H64V96h448z"/><glyph glyph-name="laptop" unicode="" horiz-adv-x="640" d="M624 32c8.8 0 16-7.2 16-16V0c0-35.2-28.8-64-64-64H64C28.8-64 0-35.2 0 0v16c0 8.8 7.2 16 16 16h239.23C254.98 17.47 269.31 0 288 0h60.8c18.03 0 32 12.19 32.74 32H624zm-48 368V64H64v336c0 26.4 21.6 48 48 48h416c26.4 0 48-21.6 48-48zm-64-272v256H128V128h384z"/><glyph glyph-name="tablet" unicode="" horiz-adv-x="448" d="M400 448c26.5 0 48-21.5 48-48V-16c0-26.5-21.5-48-48-48H48C21.5-64 0-42.5 0-16v416c0 26.5 21.5 48 48 48h352zM224-32c17.7 0 32 14.3 32 32s-14.3 32-32 32-32-14.3-32-32 14.3-32 32-32z"/><glyph glyph-name="mobile" unicode="" horiz-adv-x="320" d="M272 448c26.5 0 48-21.5 48-48V-16c0-26.5-21.5-48-48-48H48C21.5-64 0-42.5 0-16v416c0 26.5 21.5 48 48 48h224zM160-32c17.7 0 32 14.3 32 32s-14.3 32-32 32-32-14.3-32-32 14.3-32 32-32z"/><glyph glyph-name="quote-left" unicode="" d="M464 192c26.5 0 48-21.5 48-48V16c0-26.5-21.5-48-48-48H336c-26.5 0-48 21.5-48 48v240c0 88.4 71.6 160 160 160h8c13.3 0 24-10.7 24-24v-48c0-13.3-10.7-24-24-24h-8c-35.3 0-64-28.7-64-64v-64h80zm-288 0c26.5 0 48-21.5 48-48V16c0-26.5-21.5-48-48-48H48C21.5-32 0-10.5 0 16v240c0 88.4 71.6 160 160 160h8c13.3 0 24-10.7 24-24v-48c0-13.3-10.7-24-24-24h-8c-35.3 0-64-28.7-64-64v-64h80z"/><glyph glyph-name="quote-right" unicode="" d="M464 416c26.5 0 48-21.5 48-48V128c0-88.4-71.6-160-160-160h-8c-13.3 0-24 10.7-24 24v48c0 13.3 10.7 24 24 24h8c35.3 0 64 28.7 64 64v64h-80c-26.5 0-48 21.5-48 48v128c0 26.5 21.5 48 48 48h128zm-288 0c26.5 0 48-21.5 48-48V128c0-88.4-71.6-160-160-160h-8C42.7-32 32-21.3 32-8v48c0 13.3 10.7 24 24 24h8c35.3 0 64 28.7 64 64v64H48c-26.5 0-48 21.5-48 48v128c0 26.5 21.5 48 48 48h128z"/></font>
</defs>
</svg>
